Loading...
Error
 

Скачать торрент Arch Enemy - As The Stages Burn! (Live At Wacken 2016) [2017, Melodic Death Metal, Blu-ray, 1080i]

 
Автор Сообщение

ikar666

post 31-Май-17 08:13

pic
Arch Enemy - As The Stages Burn! (Live At Wacken 2016)

Год выпуска:2017
Жанр:Melodic death metal
Продолжительность: 01:12:44 + 00:33:56 + 00:24:51
Страна-производитель диска: Austria
Издатель (лейбл): Savage Messiah Music/Century Media Records Ltd
Номер по каталогу: 88985413972
Описание: After the overwhelming success of ARCH ENEMY’s 2014 opus “War Eternal” (charted at #9 in Germany, #5 in Finland, and several other countries), the band presents “As The Stages Burn!” (2017) preserving the band’s largest and most impressive stage production to date, recorded and filmed at Wacken Open Air 2016! Filmed with thirteen cameras and featuring a top notch stereo mix and 5.1 Dolby Surround mixed and mastered by Andy Sneap (Machine Head, Megadeth), “As The Stages Burn!” is an aural and visual monument essential for all ARCH ENEMY fans out there. DVD and Blu-ray contain the full Wacken show, “Wacken 2016: Behind The Scenes”, live footage from “Tokyo Sacrifice” (2015) and all music videos for the “War Eternal” album plus a previously unreleased clip
Качество: Blu-ray
Разрешение видео/развертка: 1080i
Формат: BDMV
Видео кодек: H.264
Аудио кодек: DTS, PCM
Видео: MPEG-4 AVC Video / 31995 kbps / 1080i / 29,970 fps / 16:9 / High Profile 4.1
Аудио: English / LPCM Audio / 2.0 / 48 kHz / 2304 kbps / 24-bit
Аудио 2: English / DTS-HD Master Audio / 5.1 / 48 kHz / 5243 kbps / 24-bit (DTS Core: 5.1 / 48 kHz / 1509 kbps / 24-bit)
(только в Live At Wacken 2016)
Аудио 3: English / LPCM Audio / 2.0 / 48 kHz / 1536 kbps / 16-bit (только в Wacken 2016: Behind The Scenes)
трек Лист
[b]Live At Wacken 2016:
01. Khaos Overture
02. Yesterday Is Dead And Gone
03. War Eternal
04. Ravenous
05. Stolen Life
06. My Apocalpyse
07. You Will Know My Name
08. Bloodstained Cross
09. Under Black Flags We March
10. As The Pages Burn
11. Dead Eyes See No Future
12. Avalanche
13. No Gods, No Masters
14. We Will Rise
15. Nemesis
16. Fields Of Desolation
17. Outro
18. Wacken 2016: Behind The Scenes
Special Features:
Excerpts From "Tokyo Sacrifice":
19. Tempore Nihil Sanat
20. Never Forgive, Never Forget
21. Bury Me An Angel
22. Taking Back My Soul
23. Burning Angel
24. The Day You Died
25. No More Regrets
26. Silverwing
Music Videos:
27. War Eternal (Official Video)
28. You Will Know My Name (Official Video)
29. No More Regrets (Official Video)
30. Stolen Life (2015 Version)
31. Stolen Life (2016 Version)
32. Time Is Black (Official Video)
BDInfo
Disc Title: AS THE STAGES BURN
Disc Size: 41 324 036 892 bytes
Protection: AACS
BD-Java: No
BDInfo: 0.5.8

Notes:

BDINFO HOME:
INCLUDES FORUMS REPORT FOR:
AVS Forum Blu-ray Audio and Video Specifications Thread


********************
PLAYLIST: 00001.MPLS
********************

<--- BEGIN FORUMS PASTE --->
Код:
Total Video
Title Codec Length Movie Size Disc Size Bitrate Bitrate Main Audio Track Secondary Audio Track
----- ------ ------- -------------- -------------- ------- ------- ------------------ ---------------------
00001.MPLS AVC 1:12:44 22 712 315 904 41 324 036 892 41,63 31,99 LPCM 2.0 2304Kbps (48kHz/24-bit) DTS-HD Master 5.1 5243Kbps (48kHz/24-bit)
Код:
DISC INFO:

Disc Title: AS THE STAGES BURN
Disc Size: 41 324 036 892 bytes
Protection: AACS
BD-Java: No
BDInfo: 0.5.8

PLAYLIST REPORT:

Name: 00001.MPLS
Length: 1:12:44.326 (h:m:s.ms)
Size: 22 712 315 904 bytes
Total Bitrate: 41,63 Mbps

VIDEO:

Codec Bitrate Description
----- ------- -----------
MPEG-4 AVC Video 31995 kbps 1080i / 29,970 fps / 16:9 / High Profile 4.1

AUDIO:

Codec Language Bitrate Description
----- -------- ------- -----------
LPCM Audio English 2304 kbps 2.0 / 48 kHz / 2304 kbps / 24-bit
DTS-HD Master Audio English 5243 kbps 5.1 / 48 kHz / 5243 kbps / 24-bit (DTS Core: 5.1 / 48 kHz / 1509 kbps / 24-bit)

FILES:

Name Time In Length Size Total Bitrate
---- ------- ------ ---- -------------
00000.M2TS 0:00:00.000 1:12:43.992 22 712 303 616 41 636
00012.M2TS 1:12:43.992 0:00:00.333 12 288 295

CHAPTERS:

Number Time In Length Avg Video Rate Max 1-Sec Rate Max 1-Sec Time Max 5-Sec Rate Max 5-Sec Time Max 10Sec Rate Max 10Sec Time Avg Frame Size Max Frame Size Max Frame Time
------ ------- ------ -------------- -------------- -------------- -------------- -------------- -------------- -------------- -------------- -------------- --------------
1 0:00:00.000 0:01:45.605 28 936 kbps 52 814 kbps 00:01:06.633 39 079 kbps 00:00:09.175 36 754 kbps 00:01:25.018 120 649 bytes 638 753 bytes 00:01:07.567
2 0:01:45.605 0:04:35.875 32 981 kbps 50 021 kbps 00:05:26.492 39 821 kbps 00:04:44.017 38 570 kbps 00:04:38.978 137 557 bytes 474 683 bytes 00:04:18.524
3 0:06:21.481 0:05:06.205 32 190 kbps 46 403 kbps 00:09:05.177 38 933 kbps 00:08:53.099 38 026 kbps 00:09:13.419 134 260 bytes 438 505 bytes 00:09:41.914
4 0:11:27.686 0:04:05.245 32 590 kbps 48 032 kbps 00:12:30.216 39 732 kbps 00:15:04.904 38 283 kbps 00:14:59.899 135 926 bytes 531 091 bytes 00:12:59.478
5 0:15:32.932 0:03:00.680 33 182 kbps 45 199 kbps 00:17:08.093 39 326 kbps 00:17:04.089 38 521 kbps 00:16:59.084 138 396 bytes 487 048 bytes 00:15:33.365
6 0:18:33.612 0:05:57.290 30 702 kbps 47 032 kbps 00:21:14.640 39 802 kbps 00:21:10.602 37 887 kbps 00:19:40.379 128 052 bytes 518 658 bytes 00:21:44.202
7 0:24:30.902 0:04:32.772 30 662 kbps 47 245 kbps 00:28:42.053 38 368 kbps 00:28:31.009 37 830 kbps 00:24:50.288 127 886 bytes 504 892 bytes 00:28:42.754
8 0:29:03.675 0:05:39.906 28 778 kbps 44 867 kbps 00:33:06.551 39 144 kbps 00:31:13.338 37 912 kbps 00:30:58.423 120 028 bytes 541 046 bytes 00:31:18.243
9 0:34:43.581 0:05:12.545 32 452 kbps 47 958 kbps 00:39:04.341 39 801 kbps 00:39:00.337 38 677 kbps 00:38:55.333 135 354 bytes 529 066 bytes 00:39:05.076
10 0:39:56.127 0:04:23.529 31 284 kbps 48 070 kbps 00:40:11.175 39 908 kbps 00:44:08.178 38 295 kbps 00:44:03.173 130 482 bytes 596 998 bytes 00:39:59.997
11 0:44:19.657 0:04:29.936 34 516 kbps 48 245 kbps 00:45:11.108 39 415 kbps 00:45:34.531 38 375 kbps 00:45:02.099 143 960 bytes 555 364 bytes 00:45:39.236
12 0:48:49.593 0:05:12.011 30 277 kbps 49 519 kbps 00:48:54.865 39 569 kbps 00:49:11.348 38 066 kbps 00:49:50.587 126 281 bytes 532 208 bytes 00:48:55.432
13 0:54:01.605 0:04:32.872 31 821 kbps 44 963 kbps 00:55:59.756 38 490 kbps 00:55:24.988 37 895 kbps 00:54:50.287 132 720 bytes 429 592 bytes 00:56:43.800
14 0:58:34.477 0:04:43.716 34 276 kbps 47 720 kbps 01:00:38.334 39 623 kbps 01:00:34.263 38 220 kbps 01:02:43.559 142 960 bytes 434 759 bytes 00:59:26.763
15 1:03:18.194 0:04:20.960 35 035 kbps 48 510 kbps 01:03:38.814 39 649 kbps 01:03:34.811 38 422 kbps 01:03:29.806 146 123 bytes 492 700 bytes 01:07:39.155
16 1:07:39.155 0:02:59.179 33 570 kbps 47 029 kbps 01:08:30.773 39 364 kbps 01:08:53.462 38 370 kbps 01:08:21.764 140 016 bytes 486 337 bytes 01:08:31.440
17 1:10:38.334 0:02:05.992 30 199 kbps 42 038 kbps 01:12:04.486 38 675 kbps 01:12:00.482 38 134 kbps 01:11:55.477 125 989 bytes 432 208 bytes 01:12:05.888

STREAM DIAGNOSTICS:

File PID Type Codec Language Seconds Bitrate Bytes Packets
---- --- ---- ----- -------- -------------- -------------- ------------- -----
00000.M2TS 4113 (0x1011) 0x1B AVC 4363,860 31 998 17 454 440 514 94 937 492
00000.M2TS 4352 (0x1100) 0x80 LPCM eng (English) 4363,860 2 310 1 260 321 756 6 982 392
00000.M2TS 4353 (0x1101) 0x86 DTS-HD MA eng (English) 4363,860 5 244 2 860 479 880 16 227 130
00012.M2TS 4113 (0x1011) 0x1B AVC 0,200 244 6 105 41
<---- END FORUMS PASTE ---->

QUICK SUMMARY:

Disc Title: AS THE STAGES BURN
Disc Size: 41 324 036 892 bytes
Protection: AACS
BD-Java: No
Playlist: 00001.MPLS
Size: 22 712 315 904 bytes
Length: 1:12:44.326
Total Bitrate: 41,63 Mbps
Video: MPEG-4 AVC Video / 31995 kbps / 1080i / 29,970 fps / 16:9 / High Profile 4.1
Audio: English / LPCM Audio / 2.0 / 48 kHz / 2304 kbps / 24-bit
Audio: English / DTS-HD Master Audio / 5.1 / 48 kHz / 5243 kbps / 24-bit (DTS Core: 5.1 / 48 kHz / 1509 kbps / 24-bit)

********************
PLAYLIST: 00010.MPLS
********************

<--- BEGIN FORUMS PASTE --->
Код:
Total Video
Title Codec Length Movie Size Disc Size Bitrate Bitrate Main Audio Track Secondary Audio Track
----- ------ ------- -------------- -------------- ------- ------- ------------------ ---------------------
00010.MPLS AVC 0:24:54 6 705 512 448 41 324 036 892 35,90 31,98 LPCM 2.0 2304Kbps (48kHz/24-bit)
Код:
DISC INFO:

Disc Title: AS THE STAGES BURN
Disc Size: 41 324 036 892 bytes
Protection: AACS
BD-Java: No
BDInfo: 0.5.8

PLAYLIST REPORT:

Name: 00010.MPLS
Length: 0:24:54.125 (h:m:s.ms)
Size: 6 705 512 448 bytes
Total Bitrate: 35,90 Mbps

VIDEO:

Codec Bitrate Description
----- ------- -----------
MPEG-4 AVC Video 31978 kbps 1080i / 29,970 fps / 16:9 / High Profile 4.1

AUDIO:

Codec Language Bitrate Description
----- -------- ------- -----------
LPCM Audio English 2304 kbps 2.0 / 48 kHz / 2304 kbps / 24-bit

FILES:

Name Time In Length Size Total Bitrate
---- ------- ------ ---- -------------
00003.M2TS 0:00:00.000 0:04:18.558 1 160 884 224 35 919
00004.M2TS 0:04:18.558 0:04:40.913 1 260 632 064 35 901
00005.M2TS 0:08:59.472 0:04:10.350 1 123 608 576 35 905
00006.M2TS 0:13:09.822 0:03:00.647 810 731 520 35 903
00007.M2TS 0:16:10.469 0:03:15.461 877 381 632 35 910
00008.M2TS 0:19:25.931 0:05:27.860 1 472 262 144 35 924
00012.M2TS 0:24:53.792 0:00:00.333 12 288 295

CHAPTERS:

Number Time In Length Avg Video Rate Max 1-Sec Rate Max 1-Sec Time Max 5-Sec Rate Max 5-Sec Time Max 10Sec Rate Max 10Sec Time Avg Frame Size Max Frame Size Max Frame Time
------ ------- ------ -------------- -------------- -------------- -------------- -------------- -------------- -------------- -------------- -------------- --------------
1 0:00:00.000 0:04:18.558 31 992 kbps 40 623 kbps 00:02:24.677 37 495 kbps 00:00:27.127 36 154 kbps 00:00:19.085 133 418 bytes 283 016 bytes 00:01:33.993
2 0:04:18.558 0:04:40.913 31 975 kbps 41 060 kbps 00:06:25.384 37 211 kbps 00:06:00.893 36 100 kbps 00:05:54.954 133 362 bytes 341 220 bytes 00:06:26.085
3 0:08:59.472 0:04:10.350 31 979 kbps 41 049 kbps 00:09:03.109 35 844 kbps 00:09:36.208 34 885 kbps 00:09:34.674 133 379 bytes 328 227 bytes 00:09:04.477
4 0:13:09.822 0:03:00.647 31 977 kbps 42 747 kbps 00:14:06.345 37 990 kbps 00:15:53.552 35 815 kbps 00:15:51.750 133 371 bytes 412 322 bytes 00:14:08.447
5 0:16:10.469 0:03:15.461 31 984 kbps 41 677 kbps 00:16:19.244 37 149 kbps 00:16:29.655 35 748 kbps 00:18:13.625 133 398 bytes 427 019 bytes 00:17:18.737
6 0:19:25.931 0:05:28.194 31 964 kbps 42 020 kbps 00:23:54.566 38 357 kbps 00:22:36.288 37 827 kbps 00:19:37.542 133 330 bytes 465 137 bytes 00:24:51.656

STREAM DIAGNOSTICS:

File PID Type Codec Language Seconds Bitrate Bytes Packets
---- --- ---- ----- -------- -------------- -------------- ------------- -----
00003.M2TS 4113 (0x1011) 0x1B AVC 258,425 32 008 1 033 967 286 5 623 905
00003.M2TS 4352 (0x1100) 0x80 LPCM eng (English) 258,425 2 312 74 672 128 413 696
00004.M2TS 4113 (0x1011) 0x1B AVC 280,781 31 990 1 122 771 619 6 106 897
00004.M2TS 4352 (0x1100) 0x80 LPCM eng (English) 280,781 2 312 81 128 252 449 464
00005.M2TS 4113 (0x1011) 0x1B AVC 250,217 31 996 1 000 742 214 5 443 166
00005.M2TS 4352 (0x1100) 0x80 LPCM eng (English) 250,217 2 312 72 302 524 400 568
00006.M2TS 4113 (0x1011) 0x1B AVC 180,514 32 001 722 070 923 3 927 436
00006.M2TS 4352 (0x1100) 0x80 LPCM eng (English) 180,514 2 312 52 171 720 289 040
00007.M2TS 4113 (0x1011) 0x1B AVC 195,328 32 005 781 445 870 4 250 397
00007.M2TS 4352 (0x1100) 0x80 LPCM eng (English) 195,328 2 312 56 450 292 312 744
00008.M2TS 4113 (0x1011) 0x1B AVC 327,727 32 010 1 311 317 558 7 132 457
00008.M2TS 4352 (0x1100) 0x80 LPCM eng (English) 327,727 2 311 94 687 412 524 584
00012.M2TS 4113 (0x1011) 0x1B AVC 0,200 244 6 105 41
<---- END FORUMS PASTE ---->

QUICK SUMMARY:

Disc Title: AS THE STAGES BURN
Disc Size: 41 324 036 892 bytes
Protection: AACS
BD-Java: No
Playlist: 00010.MPLS
Size: 6 705 512 448 bytes
Length: 0:24:54.125
Total Bitrate: 35,90 Mbps
Video: MPEG-4 AVC Video / 31978 kbps / 1080i / 29,970 fps / 16:9 / High Profile 4.1
Audio: English / LPCM Audio / 2.0 / 48 kHz / 2304 kbps / 24-bit

********************
PLAYLIST: 00003.MPLS
********************

<--- BEGIN FORUMS PASTE --->
Код:
Total Video
Title Codec Length Movie Size Disc Size Bitrate Bitrate Main Audio Track Secondary Audio Track
----- ------ ------- -------------- -------------- ------- ------- ------------------ ---------------------
00003.MPLS AVC 0:06:48 1 800 155 136 41 324 036 892 35,27 31,96 LPCM 2.0 1536Kbps (48kHz/16-bit)
Код:
DISC INFO:

Disc Title: AS THE STAGES BURN
Disc Size: 41 324 036 892 bytes
Protection: AACS
BD-Java: No
BDInfo: 0.5.8

PLAYLIST REPORT:

Name: 00003.MPLS
Length: 0:06:48.274 (h:m:s.ms)
Size: 1 800 155 136 bytes
Total Bitrate: 35,27 Mbps

VIDEO:

Codec Bitrate Description
----- ------- -----------
MPEG-4 AVC Video 31963 kbps 1080i / 29,970 fps / 16:9 / High Profile 4.1

AUDIO:

Codec Language Bitrate Description
----- -------- ------- -----------
LPCM Audio English 1536 kbps 2.0 / 48 kHz / 1536 kbps / 16-bit

FILES:

Name Time In Length Size Total Bitrate
---- ------- ------ ---- -------------
00002.M2TS 0:00:00.000 0:06:47.940 1 800 142 848 35 302
00012.M2TS 0:06:47.940 0:00:00.333 12 288 295

CHAPTERS:

Number Time In Length Avg Video Rate Max 1-Sec Rate Max 1-Sec Time Max 5-Sec Rate Max 5-Sec Time Max 10Sec Rate Max 10Sec Time Avg Frame Size Max Frame Size Max Frame Time
------ ------- ------ -------------- -------------- -------------- -------------- -------------- -------------- -------------- -------------- -------------- --------------
1 0:00:00.000 0:06:48.274 31 963 kbps 44 839 kbps 00:06:45.138 39 176 kbps 00:06:41.134 38 463 kbps 00:06:36.062 133 314 bytes 569 485 bytes 00:05:28.194

STREAM DIAGNOSTICS:

File PID Type Codec Language Seconds Bitrate Bytes Packets
---- --- ---- ----- -------- -------------- -------------- ------------- -----
00002.M2TS 4113 (0x1011) 0x1B AVC 407,807 32 000 1 631 222 460 8 872 534
00002.M2TS 4352 (0x1100) 0x80 LPCM eng (English) 407,807 1 543 78 651 796 489 534
00012.M2TS 4113 (0x1011) 0x1B AVC 0,200 244 6 105 41
<---- END FORUMS PASTE ---->

QUICK SUMMARY:

Disc Title: AS THE STAGES BURN
Disc Size: 41 324 036 892 bytes
Protection: AACS
BD-Java: No
Playlist: 00003.MPLS
Size: 1 800 155 136 bytes
Length: 0:06:48.274
Total Bitrate: 35,27 Mbps
Video: MPEG-4 AVC Video / 31963 kbps / 1080i / 29,970 fps / 16:9 / High Profile 4.1
Audio: English / LPCM Audio / 2.0 / 48 kHz / 1536 kbps / 16-bit

********************
PLAYLIST: 00009.MPLS
********************

<--- BEGIN FORUMS PASTE --->
Код:
Total Video
Title Codec Length Movie Size Disc Size Bitrate Bitrate Main Audio Track Secondary Audio Track
----- ------ ------- -------------- -------------- ------- ------- ------------------ ---------------------
00009.MPLS AVC 0:05:28 1 472 274 432 41 324 036 892 35,89 31,96 LPCM 2.0 2304Kbps (48kHz/24-bit)
Код:
DISC INFO:

Disc Title: AS THE STAGES BURN
Disc Size: 41 324 036 892 bytes
Protection: AACS
BD-Java: No
BDInfo: 0.5.8

PLAYLIST REPORT:

Name: 00009.MPLS
Length: 0:05:28.194 (h:m:s.ms)
Size: 1 472 274 432 bytes
Total Bitrate: 35,89 Mbps

VIDEO:

Codec Bitrate Description
----- ------- -----------
MPEG-4 AVC Video 31965 kbps 1080i / 29,970 fps / 16:9 / High Profile 4.1

AUDIO:

Codec Language Bitrate Description
----- -------- ------- -----------
LPCM Audio English 2304 kbps 2.0 / 48 kHz / 2304 kbps / 24-bit

FILES:

Name Time In Length Size Total Bitrate
---- ------- ------ ---- -------------
00008.M2TS 0:00:00.000 0:05:27.860 1 472 262 144 35 924
00012.M2TS 0:05:27.860 0:00:00.333 12 288 295

CHAPTERS:

Number Time In Length Avg Video Rate Max 1-Sec Rate Max 1-Sec Time Max 5-Sec Rate Max 5-Sec Time Max 10Sec Rate Max 10Sec Time Avg Frame Size Max Frame Size Max Frame Time
------ ------- ------ -------------- -------------- -------------- -------------- -------------- -------------- -------------- -------------- -------------- --------------
1 0:00:00.000 0:05:28.194 31 965 kbps 42 020 kbps 00:04:28.635 38 357 kbps 00:03:10.356 37 827 kbps 00:00:11.611 133 319 bytes 465 137 bytes 00:05:25.725

STREAM DIAGNOSTICS:

File PID Type Codec Language Seconds Bitrate Bytes Packets
---- --- ---- ----- -------- -------------- -------------- ------------- -----
00008.M2TS 4113 (0x1011) 0x1B AVC 327,727 32 010 1 311 317 558 7 132 457
00008.M2TS 4352 (0x1100) 0x80 LPCM eng (English) 327,727 2 311 94 687 412 524 584
00012.M2TS 4113 (0x1011) 0x1B AVC 0,200 244 6 105 41
<---- END FORUMS PASTE ---->

QUICK SUMMARY:

Disc Title: AS THE STAGES BURN
Disc Size: 41 324 036 892 bytes
Protection: AACS
BD-Java: No
Playlist: 00009.MPLS
Size: 1 472 274 432 bytes
Length: 0:05:28.194
Total Bitrate: 35,89 Mbps
Video: MPEG-4 AVC Video / 31965 kbps / 1080i / 29,970 fps / 16:9 / High Profile 4.1
Audio: English / LPCM Audio / 2.0 / 48 kHz / 2304 kbps / 24-bit

********************
PLAYLIST: 00005.MPLS
********************

<--- BEGIN FORUMS PASTE --->
Код:
Total Video
Title Codec Length Movie Size Disc Size Bitrate Bitrate Main Audio Track Secondary Audio Track
----- ------ ------- -------------- -------------- ------- ------- ------------------ ---------------------
00005.MPLS AVC 0:04:41 1 260 644 352 41 324 036 892 35,86 31,94 LPCM 2.0 2304Kbps (48kHz/24-bit)
Код:
DISC INFO:

Disc Title: AS THE STAGES BURN
Disc Size: 41 324 036 892 bytes
Protection: AACS
BD-Java: No
BDInfo: 0.5.8

PLAYLIST REPORT:

Name: 00005.MPLS
Length: 0:04:41.247 (h:m:s.ms)
Size: 1 260 644 352 bytes
Total Bitrate: 35,86 Mbps

VIDEO:

Codec Bitrate Description
----- ------- -----------
MPEG-4 AVC Video 31937 kbps 1080i / 29,970 fps / 16:9 / High Profile 4.1

AUDIO:

Codec Language Bitrate Description
----- -------- ------- -----------
LPCM Audio English 2304 kbps 2.0 / 48 kHz / 2304 kbps / 24-bit

FILES:

Name Time In Length Size Total Bitrate
---- ------- ------ ---- -------------
00004.M2TS 0:00:00.000 0:04:40.913 1 260 632 064 35 901
00012.M2TS 0:04:40.913 0:00:00.333 12 288 295

CHAPTERS:

Number Time In Length Avg Video Rate Max 1-Sec Rate Max 1-Sec Time Max 5-Sec Rate Max 5-Sec Time Max 10Sec Rate Max 10Sec Time Avg Frame Size Max Frame Size Max Frame Time
------ ------- ------ -------------- -------------- -------------- -------------- -------------- -------------- -------------- -------------- -------------- --------------
1 0:00:00.000 0:04:41.247 31 937 kbps 41 060 kbps 00:02:06.826 37 211 kbps 00:01:42.335 36 100 kbps 00:01:36.396 133 204 bytes 341 220 bytes 00:02:07.527

STREAM DIAGNOSTICS:

File PID Type Codec Language Seconds Bitrate Bytes Packets
---- --- ---- ----- -------- -------------- -------------- ------------- -----
00004.M2TS 4113 (0x1011) 0x1B AVC 280,781 31 990 1 122 771 619 6 106 897
00004.M2TS 4352 (0x1100) 0x80 LPCM eng (English) 280,781 2 312 81 128 252 449 464
00012.M2TS 4113 (0x1011) 0x1B AVC 0,200 244 6 105 41
<---- END FORUMS PASTE ---->

QUICK SUMMARY:

Disc Title: AS THE STAGES BURN
Disc Size: 41 324 036 892 bytes
Protection: AACS
BD-Java: No
Playlist: 00005.MPLS
Size: 1 260 644 352 bytes
Length: 0:04:41.247
Total Bitrate: 35,86 Mbps
Video: MPEG-4 AVC Video / 31937 kbps / 1080i / 29,970 fps / 16:9 / High Profile 4.1
Audio: English / LPCM Audio / 2.0 / 48 kHz / 2304 kbps / 24-bit

********************
PLAYLIST: 00004.MPLS
********************

<--- BEGIN FORUMS PASTE --->
Код:
Total Video
Title Codec Length Movie Size Disc Size Bitrate Bitrate Main Audio Track Secondary Audio Track
----- ------ ------- -------------- -------------- ------- ------- ------------------ ---------------------
00004.MPLS AVC 0:04:18 1 160 896 512 41 324 036 892 35,87 31,95 LPCM 2.0 2304Kbps (48kHz/24-bit)
Код:
DISC INFO:

Disc Title: AS THE STAGES BURN
Disc Size: 41 324 036 892 bytes
Protection: AACS
BD-Java: No
BDInfo: 0.5.8

PLAYLIST REPORT:

Name: 00004.MPLS
Length: 0:04:18.891 (h:m:s.ms)
Size: 1 160 896 512 bytes
Total Bitrate: 35,87 Mbps

VIDEO:

Codec Bitrate Description
----- ------- -----------
MPEG-4 AVC Video 31951 kbps 1080i / 29,970 fps / 16:9 / High Profile 4.1

AUDIO:

Codec Language Bitrate Description
----- -------- ------- -----------
LPCM Audio English 2304 kbps 2.0 / 48 kHz / 2304 kbps / 24-bit

FILES:

Name Time In Length Size Total Bitrate
---- ------- ------ ---- -------------
00003.M2TS 0:00:00.000 0:04:18.558 1 160 884 224 35 919
00012.M2TS 0:04:18.558 0:00:00.333 12 288 295

CHAPTERS:

Number Time In Length Avg Video Rate Max 1-Sec Rate Max 1-Sec Time Max 5-Sec Rate Max 5-Sec Time Max 10Sec Rate Max 10Sec Time Avg Frame Size Max Frame Size Max Frame Time
------ ------- ------ -------------- -------------- -------------- -------------- -------------- -------------- -------------- -------------- -------------- --------------
1 0:00:00.000 0:04:18.891 31 951 kbps 40 623 kbps 00:02:24.677 37 495 kbps 00:00:27.127 36 154 kbps 00:00:19.085 133 261 bytes 283 016 bytes 00:01:33.993

STREAM DIAGNOSTICS:

File PID Type Codec Language Seconds Bitrate Bytes Packets
---- --- ---- ----- -------- -------------- -------------- ------------- -----
00003.M2TS 4113 (0x1011) 0x1B AVC 258,425 32 008 1 033 967 286 5 623 905
00003.M2TS 4352 (0x1100) 0x80 LPCM eng (English) 258,425 2 312 74 672 128 413 696
00012.M2TS 4113 (0x1011) 0x1B AVC 0,200 244 6 105 41
<---- END FORUMS PASTE ---->

QUICK SUMMARY:

Disc Title: AS THE STAGES BURN
Disc Size: 41 324 036 892 bytes
Protection: AACS
BD-Java: No
Playlist: 00004.MPLS
Size: 1 160 896 512 bytes
Length: 0:04:18.891
Total Bitrate: 35,87 Mbps
Video: MPEG-4 AVC Video / 31951 kbps / 1080i / 29,970 fps / 16:9 / High Profile 4.1
Audio: English / LPCM Audio / 2.0 / 48 kHz / 2304 kbps / 24-bit

********************
PLAYLIST: 00006.MPLS
********************

<--- BEGIN FORUMS PASTE --->
Код:
Total Video
Title Codec Length Movie Size Disc Size Bitrate Bitrate Main Audio Track Secondary Audio Track
----- ------ ------- -------------- -------------- ------- ------- ------------------ ---------------------
00006.MPLS AVC 0:04:10 1 123 620 864 41 324 036 892 35,86 31,94 LPCM 2.0 2304Kbps (48kHz/24-bit)
Код:
DISC INFO:

Disc Title: AS THE STAGES BURN
Disc Size: 41 324 036 892 bytes
Protection: AACS
BD-Java: No
BDInfo: 0.5.8

PLAYLIST REPORT:

Name: 00006.MPLS
Length: 0:04:10.683 (h:m:s.ms)
Size: 1 123 620 864 bytes
Total Bitrate: 35,86 Mbps

VIDEO:

Codec Bitrate Description
----- ------- -----------
MPEG-4 AVC Video 31937 kbps 1080i / 29,970 fps / 16:9 / High Profile 4.1

AUDIO:

Codec Language Bitrate Description
----- -------- ------- -----------
LPCM Audio English 2304 kbps 2.0 / 48 kHz / 2304 kbps / 24-bit

FILES:

Name Time In Length Size Total Bitrate
---- ------- ------ ---- -------------
00005.M2TS 0:00:00.000 0:04:10.350 1 123 608 576 35 905
00012.M2TS 0:04:10.350 0:00:00.333 12 288 295

CHAPTERS:

Number Time In Length Avg Video Rate Max 1-Sec Rate Max 1-Sec Time Max 5-Sec Rate Max 5-Sec Time Max 10Sec Rate Max 10Sec Time Avg Frame Size Max Frame Size Max Frame Time
------ ------- ------ -------------- -------------- -------------- -------------- -------------- -------------- -------------- -------------- -------------- --------------
1 0:00:00.000 0:04:10.683 31 937 kbps 41 049 kbps 00:00:03.636 35 844 kbps 00:00:36.736 34 885 kbps 00:00:35.201 133 202 bytes 328 227 bytes 00:00:05.005

STREAM DIAGNOSTICS:

File PID Type Codec Language Seconds Bitrate Bytes Packets
---- --- ---- ----- -------- -------------- -------------- ------------- -----
00005.M2TS 4113 (0x1011) 0x1B AVC 250,217 31 996 1 000 742 214 5 443 166
00005.M2TS 4352 (0x1100) 0x80 LPCM eng (English) 250,217 2 312 72 302 524 400 568
00012.M2TS 4113 (0x1011) 0x1B AVC 0,200 244 6 105 41
<---- END FORUMS PASTE ---->

QUICK SUMMARY:

Disc Title: AS THE STAGES BURN
Disc Size: 41 324 036 892 bytes
Protection: AACS
BD-Java: No
Playlist: 00006.MPLS
Size: 1 123 620 864 bytes
Length: 0:04:10.683
Total Bitrate: 35,86 Mbps
Video: MPEG-4 AVC Video / 31937 kbps / 1080i / 29,970 fps / 16:9 / High Profile 4.1
Audio: English / LPCM Audio / 2.0 / 48 kHz / 2304 kbps / 24-bit

********************
PLAYLIST: 00008.MPLS
********************

<--- BEGIN FORUMS PASTE --->
Код:
Total Video
Title Codec Length Movie Size Disc Size Bitrate Bitrate Main Audio Track Secondary Audio Track
----- ------ ------- -------------- -------------- ------- ------- ------------------ ---------------------
00008.MPLS AVC 0:03:15 877 393 920 41 324 036 892 35,85 31,93 LPCM 2.0 2304Kbps (48kHz/24-bit)
Код:
DISC INFO:

Disc Title: AS THE STAGES BURN
Disc Size: 41 324 036 892 bytes
Protection: AACS
BD-Java: No
BDInfo: 0.5.8

PLAYLIST REPORT:

Name: 00008.MPLS
Length: 0:03:15.795 (h:m:s.ms)
Size: 877 393 920 bytes
Total Bitrate: 35,85 Mbps

VIDEO:

Codec Bitrate Description
----- ------- -----------
MPEG-4 AVC Video 31929 kbps 1080i / 29,970 fps / 16:9 / High Profile 4.1

AUDIO:

Codec Language Bitrate Description
----- -------- ------- -----------
LPCM Audio English 2304 kbps 2.0 / 48 kHz / 2304 kbps / 24-bit

FILES:

Name Time In Length Size Total Bitrate
---- ------- ------ ---- -------------
00007.M2TS 0:00:00.000 0:03:15.461 877 381 632 35 910
00012.M2TS 0:03:15.461 0:00:00.333 12 288 295

CHAPTERS:

Number Time In Length Avg Video Rate Max 1-Sec Rate Max 1-Sec Time Max 5-Sec Rate Max 5-Sec Time Max 10Sec Rate Max 10Sec Time Avg Frame Size Max Frame Size Max Frame Time
------ ------- ------ -------------- -------------- -------------- -------------- -------------- -------------- -------------- -------------- -------------- --------------
1 0:00:00.000 0:03:15.795 31 929 kbps 41 677 kbps 00:00:08.775 37 149 kbps 00:00:19.185 35 748 kbps 00:02:03.156 133 172 bytes 427 019 bytes 00:01:08.268

STREAM DIAGNOSTICS:

File PID Type Codec Language Seconds Bitrate Bytes Packets
---- --- ---- ----- -------- -------------- -------------- ------------- -----
00007.M2TS 4113 (0x1011) 0x1B AVC 195,328 32 005 781 445 870 4 250 397
00007.M2TS 4352 (0x1100) 0x80 LPCM eng (English) 195,328 2 312 56 450 292 312 744
00012.M2TS 4113 (0x1011) 0x1B AVC 0,200 244 6 105 41
<---- END FORUMS PASTE ---->

QUICK SUMMARY:

Disc Title: AS THE STAGES BURN
Disc Size: 41 324 036 892 bytes
Protection: AACS
BD-Java: No
Playlist: 00008.MPLS
Size: 877 393 920 bytes
Length: 0:03:15.795
Total Bitrate: 35,85 Mbps
Video: MPEG-4 AVC Video / 31929 kbps / 1080i / 29,970 fps / 16:9 / High Profile 4.1
Audio: English / LPCM Audio / 2.0 / 48 kHz / 2304 kbps / 24-bit

********************
PLAYLIST: 00007.MPLS
********************

<--- BEGIN FORUMS PASTE --->
Код:
Total Video
Title Codec Length Movie Size Disc Size Bitrate Bitrate Main Audio Track Secondary Audio Track
----- ------ ------- -------------- -------------- ------- ------- ------------------ ---------------------
00007.MPLS AVC 0:03:00 810 743 808 41 324 036 892 35,84 31,92 LPCM 2.0 2304Kbps (48kHz/24-bit)
Код:
DISC INFO:

Disc Title: AS THE STAGES BURN
Disc Size: 41 324 036 892 bytes
Protection: AACS
BD-Java: No
BDInfo: 0.5.8

PLAYLIST REPORT:

Name: 00007.MPLS
Length: 0:03:00.980 (h:m:s.ms)
Size: 810 743 808 bytes
Total Bitrate: 35,84 Mbps

VIDEO:

Codec Bitrate Description
----- ------- -----------
MPEG-4 AVC Video 31918 kbps 1080i / 29,970 fps / 16:9 / High Profile 4.1

AUDIO:

Codec Language Bitrate Description
----- -------- ------- -----------
LPCM Audio English 2304 kbps 2.0 / 48 kHz / 2304 kbps / 24-bit

FILES:

Name Time In Length Size Total Bitrate
---- ------- ------ ---- -------------
00006.M2TS 0:00:00.000 0:03:00.647 810 731 520 35 903
00012.M2TS 0:03:00.647 0:00:00.333 12 288 295

CHAPTERS:

Number Time In Length Avg Video Rate Max 1-Sec Rate Max 1-Sec Time Max 5-Sec Rate Max 5-Sec Time Max 10Sec Rate Max 10Sec Time Avg Frame Size Max Frame Size Max Frame Time
------ ------- ------ -------------- -------------- -------------- -------------- -------------- -------------- -------------- -------------- -------------- --------------
1 0:00:00.000 0:03:00.980 31 918 kbps 42 747 kbps 00:00:56.523 37 990 kbps 00:02:43.730 35 815 kbps 00:02:41.928 133 126 bytes 412 322 bytes 00:00:58.625

STREAM DIAGNOSTICS:

File PID Type Codec Language Seconds Bitrate Bytes Packets
---- --- ---- ----- -------- -------------- -------------- ------------- -----
00006.M2TS 4113 (0x1011) 0x1B AVC 180,514 32 001 722 070 923 3 927 436
00006.M2TS 4352 (0x1100) 0x80 LPCM eng (English) 180,514 2 312 52 171 720 289 040
00012.M2TS 4113 (0x1011) 0x1B AVC 0,200 244 6 105 41
<---- END FORUMS PASTE ---->

QUICK SUMMARY:

Disc Title: AS THE STAGES BURN
Disc Size: 41 324 036 892 bytes
Protection: AACS
BD-Java: No
Playlist: 00007.MPLS
Size: 810 743 808 bytes
Length: 0:03:00.980
Total Bitrate: 35,84 Mbps
Video: MPEG-4 AVC Video / 31918 kbps / 1080i / 29,970 fps / 16:9 / High Profile 4.1
Audio: English / LPCM Audio / 2.0 / 48 kHz / 2304 kbps / 24-bit

********************
PLAYLIST: 00002.MPLS
********************

<--- BEGIN FORUMS PASTE --->
Код:
Total Video
Title Codec Length Movie Size Disc Size Bitrate Bitrate Main Audio Track Secondary Audio Track
----- ------ ------- -------------- -------------- ------- ------- ------------------ ---------------------
00002.MPLS AVC 0:33:56 9 143 556 096 41 324 036 892 35,92 31,99 LPCM 2.0 2304Kbps (48kHz/24-bit)
Код:
DISC INFO:

Disc Title: AS THE STAGES BURN
Disc Size: 41 324 036 892 bytes
Protection: AACS
BD-Java: No
BDInfo: 0.5.8

PLAYLIST REPORT:

Name: 00002.MPLS
Length: 0:33:56.601 (h:m:s.ms)
Size: 9 143 556 096 bytes
Total Bitrate: 35,92 Mbps

VIDEO:

Codec Bitrate Description
----- ------- -----------
MPEG-4 AVC Video 31990 kbps 1080i / 29,970 fps / 16:9 / High Profile 4.1

AUDIO:

Codec Language Bitrate Description
----- -------- ------- -----------
LPCM Audio English 2304 kbps 2.0 / 48 kHz / 2304 kbps / 24-bit

FILES:

Name Time In Length Size Total Bitrate
---- ------- ------ ---- -------------
00014.M2TS 0:00:00.000 0:33:56.267 9 143 543 808 35 923
00013.M2TS 0:33:56.267 0:00:00.333 12 288 295

CHAPTERS:

Number Time In Length Avg Video Rate Max 1-Sec Rate Max 1-Sec Time Max 5-Sec Rate Max 5-Sec Time Max 10Sec Rate Max 10Sec Time Avg Frame Size Max Frame Size Max Frame Time
------ ------- ------ -------------- -------------- -------------- -------------- -------------- -------------- -------------- -------------- -------------- --------------
1 0:00:00.000 0:01:18.978 19 251 kbps 40 114 kbps 00:00:58.625 32 155 kbps 00:00:55.021 29 229 kbps 00:00:53.319 80 259 bytes 303 549 bytes 00:00:59.492
2 0:01:18.978 0:03:46.292 30 759 kbps 42 382 kbps 00:03:51.598 38 075 kbps 00:02:43.730 36 520 kbps 00:02:42.395 128 289 bytes 395 752 bytes 00:03:52.332
3 0:05:05.271 0:04:38.478 32 782 kbps 41 846 kbps 00:05:36.302 38 220 kbps 00:07:52.939 37 692 kbps 00:07:52.905 136 729 bytes 430 057 bytes 00:09:20.927
4 0:09:43.749 0:04:55.128 32 170 kbps 43 307 kbps 00:10:11.844 38 404 kbps 00:13:28.040 37 949 kbps 00:13:59.038 134 174 bytes 430 006 bytes 00:10:01.067
5 0:14:38.878 0:04:25.798 32 741 kbps 42 296 kbps 00:18:46.558 38 089 kbps 00:18:06.685 37 390 kbps 00:16:59.518 136 555 bytes 356 207 bytes 00:18:47.326
6 0:19:04.676 0:05:02.435 33 108 kbps 42 209 kbps 00:20:07.839 38 637 kbps 00:20:03.835 37 958 kbps 00:19:58.964 138 087 bytes 386 827 bytes 00:20:08.774
7 0:24:07.112 0:04:21.027 32 551 kbps 42 508 kbps 00:27:25.543 38 454 kbps 00:25:51.516 37 973 kbps 00:26:58.416 135 764 bytes 375 357 bytes 00:24:18.156
8 0:28:28.139 0:05:28.461 32 988 kbps 43 744 kbps 00:29:01.573 38 228 kbps 00:33:14.158 37 743 kbps 00:33:09.153 137 600 bytes 401 965 bytes 00:29:35.240

STREAM DIAGNOSTICS:

File PID Type Codec Language Seconds Bitrate Bytes Packets
---- --- ---- ----- -------- -------------- -------------- ------------- -----
00014.M2TS 4113 (0x1011) 0x1B AVC 2036,134 31 998 8 143 923 546 44 296 352
00014.M2TS 4352 (0x1100) 0x80 LPCM eng (English) 2036,134 2 311 588 074 776 3 258 032
00013.M2TS 4113 (0x1011) 0x1B AVC 0,200 244 6 105 41
<---- END FORUMS PASTE ---->

QUICK SUMMARY:

Disc Title: AS THE STAGES BURN
Disc Size: 41 324 036 892 bytes
Protection: AACS
BD-Java: No
Playlist: 00002.MPLS
Size: 9 143 556 096 bytes
Length: 0:33:56.601
Total Bitrate: 35,92 Mbps
Video: MPEG-4 AVC Video / 31990 kbps / 1080i / 29,970 fps / 16:9 / High Profile 4.1
Audio: English / LPCM Audio / 2.0 / 48 kHz / 2304 kbps / 24-bit

********************
PLAYLIST: 00012.MPLS
********************

<--- BEGIN FORUMS PASTE --->
Код:
Total Video
Title Codec Length Movie Size Disc Size Bitrate Bitrate Main Audio Track Secondary Audio Track
----- ------ ------- -------------- -------------- ------- ------- ------------------ ---------------------
00012.MPLS AVC 0:02:35 748 290 048 41 324 036 892 38,48 32,00 LPCM 2.0 2304Kbps (48kHz/24-bit) LPCM 2.0 2304Kbps (48kHz/24-bit)
Код:
DISC INFO:

Disc Title: AS THE STAGES BURN
Disc Size: 41 324 036 892 bytes
Protection: AACS
BD-Java: No
BDInfo: 0.5.8

PLAYLIST REPORT:

Name: 00012.MPLS
Length: 0:02:35.555 (h:m:s.ms)
Size: 748 290 048 bytes
Total Bitrate: 38,48 Mbps

VIDEO:

Codec Bitrate Description
----- ------- -----------
MPEG-4 AVC Video 32000 kbps 1080i / 29,970 fps / 16:9 / High Profile 4.1

AUDIO:

Codec Language Bitrate Description
----- -------- ------- -----------
LPCM Audio English 2304 kbps 2.0 / 48 kHz / 2304 kbps / 24-bit
LPCM Audio English 2304 kbps 2.0 / 48 kHz / 2304 kbps / 24-bit

SUBTITLES:

Codec Language Bitrate Description
----- -------- ------- -----------
Interactive Graphics English 92,544 kbps

FILES:

Name Time In Length Size Total Bitrate
---- ------- ------ ---- -------------
00009.M2TS 0:00:00.000 0:02:35.555 748 290 048 38 484

CHAPTERS:

Number Time In Length Avg Video Rate Max 1-Sec Rate Max 1-Sec Time Max 5-Sec Rate Max 5-Sec Time Max 10Sec Rate Max 10Sec Time Avg Frame Size Max Frame Size Max Frame Time
------ ------- ------ -------------- -------------- -------------- -------------- -------------- -------------- -------------- -------------- -------------- --------------
1 0:00:00.000 0:02:35.555 32 000 kbps 36 416 kbps 00:02:04.390 32 963 kbps 00:00:05.105 32 546 kbps 00:00:00.900 133 467 bytes 640 889 bytes 00:02:25.345

STREAM DIAGNOSTICS:

File PID Type Codec Language Seconds Bitrate Bytes Packets
---- --- ---- ----- -------- -------------- -------------- ------------- -----
00009.M2TS 4113 (0x1011) 0x1B AVC 155,422 32 027 622 221 604 3 384 390
00009.M2TS 4352 (0x1100) 0x80 LPCM eng (English) 155,422 2 312 44 925 728 248 896
00009.M2TS 4353 (0x1101) 0x80 LPCM eng (English) 155,422 2 312 44 925 728 248 896
00009.M2TS 5120 (0x1400) 0x91 IGS eng (English) 155,422 93 1 799 456 9 917
<---- END FORUMS PASTE ---->

QUICK SUMMARY:

Disc Title: AS THE STAGES BURN
Disc Size: 41 324 036 892 bytes
Protection: AACS
BD-Java: No
Playlist: 00012.MPLS
Size: 748 290 048 bytes
Length: 0:02:35.555
Total Bitrate: 38,48 Mbps
Video: MPEG-4 AVC Video / 32000 kbps / 1080i / 29,970 fps / 16:9 / High Profile 4.1
Audio: English / LPCM Audio / 2.0 / 48 kHz / 2304 kbps / 24-bit
Audio: English / LPCM Audio / 2.0 / 48 kHz / 2304 kbps / 24-bit
Subtitle: English / 92,544 kbps
Скриншоты
AS THE STAGES BURN 1080p.torrent
 ЗОЛОТАЯ РАЗДАЧА! СКАЧАННОЕ НЕ ЗАСЧИТЫВАЕТСЯ! 
Вечный
Трекер: Зарегистрирован

magnet ссылка

 


Скачать .torrent

201 KB

Статус: проверено (by Snowden в 31-Май-17 13:32)
Зарегистрирован: 31-Май-17 08:13
Скачан: 14 раз
Размер: 38.49 GB | 
Поблагодарили:
Скачать Arch Enemy - As The Stages Burn! (Live At Wacken 2016) [2017, Melodic Death Metal, Blu-ray, 1080i] торрент
 


Похожие раздачи

Текущее время: 16-Дек 00:54

Часовой пояс: GMT + 3



Вы не можете начинать темы
Вы не можете отвечать на сообщения
Вы не можете редактировать свои сообщения
Вы не можете удалять свои сообщения
Вы не можете голосовать в опросах
Вы не можете прикреплять файлы к сообщениям
Вы не можете скачивать файлы