Loading...
Error
 

Скачать торрент Моя геройская академия | My Hero Academia | Boku no Hero Academia [Нагасаки Кэндзи] [TV 1-13 из 13] [Jap+Russubs] [2016 г., экшн, комедия, приключения, фэнтези, сёнэн]

 
Автор Сообщение

xxxGabrielxxx

post 19-Июн-17 17:11

pic

Моя геройская академия | My Hero Academia | Boku no Hero Academia

pic
Общая информация
Год выпуска: 2016
Страна: Япония pic
Жанр: экшн, комедия, приключения, фэнтези, сёнэн
Тип: ТВ [1-13 из 13]
Продолжительность: каждый эпизод по 24 минуты
Перевод: отсутствует
Язык: Японский pic
Субтитры: Русские pic
  • внешние ASS, отключаемые
  • Перевод выполнен [AOS Team]

Студия: pic
Автор оригинала: Хорикоси Кохэй | Horikoshi Kouhei
Режиссёр: Нагасаки Кэндзи | Nagasaki Kenji

Рейтинги
picpic pic pic pic
Описание
Аниме-адаптация популярной в Японии манги Хорикоши Кохэя. В мире, где большая часть населения человечества рождается с необычной способностью (так называемая причуда), наш главный герой остается ею обделен. И по всем законам жанра неудачник сам упорно пытается достичь небывалой силы и приблизиться к своей мечте - стать супергероем.
Технические особенности релиза
Качество: HDTVRip
Формат: MKV
Видео: кодек видео-AVC, разрешение видео-1280х720, битрейт -1776 Кбит/сек, кадров в секунду-23,976 кадра/сек
Аудио:Язык дорожки - pic JАP, кодек-AAC, частота-48,0 КГц, кол-во каналов-2 канала, битрейт-212 Кбит/сек

MediaInfo [Merchant]

Код:

Общее
Уникальный идентификатор                 : 171312251104824629370400161213603083422 (0x80E18A17B646EDD1AF04DD7E135B749E)
Полное имя                               : D:\Аниме\Merchant_Boku_no_Hero_Academia\[Merchant] Boku no Hero Academia - 01.mkv
Формат                                   : Matroska
Версия формата                           : Version 4 / Version 2
Размер файла                             : 440 Мбайт
Продолжительность                        : 24 м.
Общий поток                              : 2512 Кбит/сек
Дата кодирования                         : UTC 2016-04-03 13:16:31
Программа кодирования                    : mkvmerge v7.2.0 ('On Every Street') 32bit built on Sep 13 2014 15:42:11
Библиотека кодирования                   : libebml v1.3.0 + libmatroska v1.4.1

Видео
Идентификатор                            : 1
Формат                                   : AVC
Формат/Информация                        : Advanced Video Codec
Профиль формата                          : [email protected]
Параметр CABAC формата                   : Да
Параметр ReFrames формата                : 4 кадра
Идентификатор кодека                     : V_MPEG4/ISO/AVC
Продолжительность                        : 24 м.
Битрейт                                  : 2297 Кбит/сек
Ширина                                   : 1280 пикселей
Высота                                   : 720 пикселей
Соотношение сторон                       : 16:9
Режим частоты кадров                     : Постоянный
Частота кадров                           : 23,976 (24000/1001) кадра/сек
Цветовое пространство                    : YUV
Субдискретизация насыщенности            : 4:2:0
Битовая глубина                          : 8 бит
Тип развёртки                            : Прогрессивная
Бит/(Пиксели*Кадры)                      : 0.104
Размер потока                            : 403 Мбайт (91%)
Библиотека кодирования                   : x264 core 148 r2665 a01e339
Настройки программы                      : cabac=1 / ref=3 / deblock=1:0:0 / analyse=0x1:0x111 / me=hex / subme=7 / psy=1 / psy_rd=1.00:0.00 / mixed_ref=1 / me_range=16 / chroma_me=1 / trellis=1 / 8x8dct=0 / cqm=0 / deadzone=21,11 / fast_pskip=1 / chroma_qp_offset=-2 / threads=12 / lookahead_threads=2 / sliced_threads=0 / nr=0 / decimate=1 / interlaced=0 / bluray_compat=0 / constrained_intra=0 / bframes=3 / b_pyramid=2 / b_adapt=1 / b_bias=0 / direct=1 / weightb=1 / open_gop=0 / weightp=2 / keyint=240 / keyint_min=1 / scenecut=40 / intra_refresh=0 / rc_lookahead=40 / rc=crf / mbtree=1 / crf=20.0 / qcomp=0.60 / qpmin=0 / qpmax=69 / qpstep=4 / ip_ratio=1.40 / aq=1:1.50
Default                                  : Да
Forced                                   : Нет
Цветовой диапазон                        : Limited
Основные цвета                           : BT.709
Характеристики трансфера                 : BT.709
Коэффициенты матрицы                     : BT.709

Аудио
Идентификатор                            : 2
Формат                                   : AAC
Формат/Информация                        : Advanced Audio Codec
Профиль формата                          : LC
Идентификатор кодека                     : A_AAC
Продолжительность                        : 24 м.
Битрейт                                  : 212 Кбит/сек
Каналы                                   : 2 канала
Расположение каналов                     : Front: L R
Частота                                  : 48,0 КГц
Частота кадров                           : 46,875 кадров/сек (1024 spf)
Метод сжатия                             : С потерями
Размер потока                            : 37,2 Мбайт (8%)
Язык                                     : Japanese
Default                                  : Да
Forced                                   : Нет

Текст
Идентификатор                            : 3
Формат                                   : ASS
Идентификатор кодека                     : S_TEXT/ASS
Идентификатор кодека/Информация          : Advanced Sub Station Alpha
Продолжительность                        : 24 м.
Битрейт                                  : 94 бит/сек
Count of elements                        : 315
Метод сжатия                             : Без потерь
Размер потока                            : 16,9 Кбайт (0%)
Язык                                     : English
Default                                  : Да
Forced                                   : Нет

MediaInfo[Ohys-Raws]

Код:

Общее
Полное имя                               : D:\Аниме\Merchant_Boku_no_Hero_Academia\[Ohys-Raws] Boku no Hero Academia - 02 (TBS 1280x720 x264 AAC).mp4
Формат                                   : MPEG-4
Профиль формата                          : Base Media
Идентификатор кодека                     : isom (isom/avc1)
Размер файла                             : 428 Мбайт
Продолжительность                        : 24 м.
Режим общего битрейта                    : Переменный
Общий поток                              : 2443 Кбит/сек
Дата кодирования                         : UTC 2016-04-10 08:51:29
Дата пометки                             : UTC 2016-04-10 08:51:29

Видео
Идентификатор                            : 1
Формат                                   : AVC
Формат/Информация                        : Advanced Video Codec
Профиль формата                          : [email protected]
Параметр CABAC формата                   : Да
Параметр ReFrames формата                : 4 кадра
Идентификатор кодека                     : avc1
Идентификатор кодека/Информация          : Advanced Video Coding
Продолжительность                        : 24 м.
Битрейт                                  : 2223 Кбит/сек
Максимальный битрейт                     : 9761 Кбит/сек
Ширина                                   : 1280 пикселей
Высота                                   : 720 пикселей
Соотношение сторон                       : 16:9
Режим частоты кадров                     : Постоянный
Частота кадров                           : 23,976 (24000/1001) кадра/сек
Цветовое пространство                    : YUV
Субдискретизация насыщенности            : 4:2:0
Битовая глубина                          : 8 бит
Тип развёртки                            : Прогрессивная
Бит/(Пиксели*Кадры)                      : 0.101
Размер потока                            : 390 Мбайт (91%)
Библиотека кодирования                   : x264 core 148 r2665 a01e339
Настройки программы                      : cabac=1 / ref=3 / deblock=1:0:0 / analyse=0x1:0x111 / me=hex / subme=7 / psy=1 / psy_rd=1.00:0.00 / mixed_ref=1 / me_range=16 / chroma_me=1 / trellis=1 / 8x8dct=0 / cqm=0 / deadzone=21,11 / fast_pskip=1 / chroma_qp_offset=-2 / threads=12 / lookahead_threads=2 / sliced_threads=0 / nr=0 / decimate=1 / interlaced=0 / bluray_compat=0 / constrained_intra=0 / bframes=3 / b_pyramid=2 / b_adapt=1 / b_bias=0 / direct=1 / weightb=1 / open_gop=0 / weightp=2 / keyint=240 / keyint_min=1 / scenecut=40 / intra_refresh=0 / rc_lookahead=40 / rc=crf / mbtree=1 / crf=20.0 / qcomp=0.60 / qpmin=0 / qpmax=69 / qpstep=4 / ip_ratio=1.40 / aq=1:1.50
Дата кодирования                         : UTC 2016-04-10 08:51:29
Дата пометки                             : UTC 2016-04-10 08:51:32
Цветовой диапазон                        : Limited
Основные цвета                           : BT.709
Характеристики трансфера                 : BT.709
Коэффициенты матрицы                     : BT.709

Аудио
Идентификатор                            : 2
Формат                                   : AAC
Формат/Информация                        : Advanced Audio Codec
Профиль формата                          : LC
Идентификатор кодека                     : 40
Продолжительность                        : 24 м.
Вид битрейта                             : Переменный
Битрейт                                  : 217 Кбит/сек
Максимальный битрейт                     : 241 Кбит/сек
Каналы                                   : 2 канала
Расположение каналов                     : Front: L R
Частота                                  : 48,0 КГц
Частота кадров                           : 46,875 кадров/сек (1024 spf)
Метод сжатия                             : С потерями
Размер потока                            : 38,0 Мбайт (9%)
Язык                                     : Japanese
Дата кодирования                         : UTC 2016-04-10 08:45:54
Дата пометки                             : UTC 2016-04-10 08:51:32
Скриншоты
Трейлер


pic

pic
© Оформление by Gabriel
академия 1-13.torrent
Трекер: Зарегистрирован

magnet ссылка

 


Скачать .torrent

36 KB

Статус: проверено (by Арт33 в 19-Июн-17 19:08)
Зарегистрирован: 19-Июн-17 17:11
Скачан: 34 раза
Размер: 6.7 GB | 
Поблагодарили:
Скачать Моя геройская академия | My Hero Academia | Boku no Hero Academia [Нагасаки Кэндзи] [TV 1-13 из 13] [Jap+Russubs] [2016 г., экшн, комедия, приключения, фэнтези, сёнэн] торрент
 


Похожие раздачи

Текущее время: 23-Июл 02:32

Часовой пояс: GMT + 3



Вы не можете начинать темы
Вы не можете отвечать на сообщения
Вы не можете редактировать свои сообщения
Вы не можете удалять свои сообщения
Вы не можете голосовать в опросах
Вы не можете прикреплять файлы к сообщениям
Вы не можете скачивать файлы