Loading...
Error
 

Скачать торрент Кастлвания / Castlevania [TV-1 ] [4 из 4] [Без хардсаба] [RUS, JAP, ENG, multi10] [2017 г., ужасы, фэнтези, боевик, приключения, WEB-DL] [1080p]

 
Автор Сообщение

MoscowGolem

post 07-Июл-17 23:52

pic
Кастлвания / Castlevania

pic
Год выпуска: 2017
Страна: США
Жанр: ужасы, фэнтези, боевик, приключения
Продолжительность: 4 эпизода ~ по 25 мин
Перевод: Русские субтитры:
TV1 - Risens Team
Перевод: Русская озвучка:
TV1 - SunShine Studio
Перевод: Иностранные озвучки внутри контейнера
TV1 - NetFlix: JAP, ENG
Перевод: Иностранные озвучки внешними файлами
TV1 - NetFlix: FRE, GER, ITA, POL, POR, SPA, TUR.
Перевод: Иностранные субтиры
TV1 - NetFlix: JAP, ENG, FRE, GER, ITA, POL, POR, SPA, TUR.
Студия: NetFlix
Режиссёр: Сэм Дитс
Описание:
События мрачного средневекового фэнтези, основанного на культовой игре Castlevania III: Dracula’s Curse, разворачиваются в 1476 году — за два века до событий оригинальной игры. Главный герой — предок охотника на вампиров Саймона Бельмонта по имени Тревор. В Восточной Европе объявился граф Дракула, и последний выживший из клана валашских изгнанников готовится вступить в смертельную битву с могущественным злом.
Информационные ссылки:
Кино Говно || World-Art
Качество: Web-DL
Формат: MKV
Видео: кодек видео x264 , разрешение видео 1920х1080, битрейт ~5000+ kbps, кадры в секунду: 23.976 fps
Аудио:1. Russian AAC, 48.0 KHz, 196 kbps, 2 ch [SunshineStudio];
Аудио:2. English AC3, 48.1 KHz, 192 kbps, 2 ch ;
Аудио:3. Japanese AC3, 48.1 KHz, 192 kbps, 2 ch ;
Аудио:4. English AC3, 48.1 KHz, 384 kbps, 5.1 ch ;
Аудио:5. Japanese AC3, 48.1 KHz, 384 kbps, 5.1 ch ;
Аудио:6. Spanish AC3, 48.1 KHz, 384 kbps, 5.1 ch ;
Аудио:7. French AC3, 48.1 KHz, 384 kbps, 5.1 ch ;
Аудио:8. German AC3, 48.1 KHz, 384 kbps, 5.1 ch ;
Аудио:9. Turkish AC3, 48.1 KHz, 384 kbps, 5.1 ch ;
Аудио:10. Italian AC3, 48.1 KHz, 384 kbps, 5.1 ch ;
Аудио:11. Polish AC3, 48.1 KHz, 384 kbps, 5.1 ch ;
Аудио:12. Portuguese AC3, 48.1 KHz, 384 kbps, 5.1 ch ;
MediaInfo
ep1
General
Complete name : G:\Downloads3\Castlevania.2017.S01.1080p.WEB-DL.H.264-RUS-JAP-ENG-Multi10\Castlevania.S01E01.1080p.WEB-DL.mkv
Format : Matroska
Format version : Version 4 / Version 2
File size : 1.53 GiB
Duration : 25 min 4 s
Overall bit rate mode : Variable
Overall bit rate : 8 731 kb/s
Encoded date : UTC 2017-07-08 14:27:30
Writing application : mkvmerge v13.0.0 ('The Juggler') 64bit
Writing library : libebml v1.3.4 + libmatroska v1.4.5

Video
ID : 1
Format : AVC
Format/Info : Advanced Video Codec
Format profile : [email protected]
Format settings, CABAC : Yes
Format settings, ReFrames : 3 frames
Codec ID : V_MPEG4/ISO/AVC
Duration : 25 min 3 s
Bit rate mode : Variable
Bit rate : 7 500 kb/s
Maximum bit rate : 11.2 Mb/s
Width : 1 920 pixels
Height : 1 080 pixels
Display aspect ratio : 16:9
Frame rate mode : Constant
Frame rate : 23.976 (24000/1001) FPS
Color space : YUV
Chroma subsampling : 4:2:0
Bit depth : 8 bits
Scan type : Progressive
Bits/(Pixel*Frame) : 0.151
Stream size : 1.29 GiB (84%)
Writing library : x264 core 118
Encoding settings : cabac=1 / ref=3 / deblock=1:0:0 / analyse=0x1:0x111 / me=umh / subme=10 / psy=1 / psy_rd=1.00:0.00 / mixed_ref=1 / me_range=24 / chroma_me=1 / trellis=2 / 8x8dct=0 / cqm=0 / deadzone=21,11 / fast_pskip=1 / chroma_qp_offset=-2 / threads=8 / sliced_threads=0 / nr=0 / decimate=1 / interlaced=0 / bluray_compat=0 / constrained_intra=0 / bframes=2 / b_pyramid=0 / b_adapt=2 / b_bias=0 / direct=3 / weightb=1 / open_gop=0 / weightp=2 / keyint=48 / keyint_min=25 / scenecut=0 / intra_refresh=0 / rc_lookahead=0 / rc=2pass / mbtree=1 / bitrate=7500 / ratetol=1.0 / qcomp=0.50 / qpmin=6 / qpmax=51 / qpstep=4 / cplxblur=20.0 / qblur=0.5 / vbv_maxrate=11250 / vbv_bufsize=15000 / nal_hrd=vbr / ip_ratio=1.40 / aq=1:1.00
Default : Yes
Forced : No

Audio #1
ID : 2
Format : AAC
Format/Info : Advanced Audio Codec
Format profile : LC
Codec ID : A_AAC
Duration : 25 min 4 s
Bit rate : 196 kb/s
Channel(s) : 2 channels
Channel positions : Front: L R
Sampling rate : 48.0 kHz
Frame rate : 46.875 FPS (1024 spf)
Compression mode : Lossy
Stream size : 35.1 MiB (2%)
Title : SunshineStudio
Language : Russian
Default : Yes
Forced : No

Audio #2
ID : 3
Format : AC-3
Format/Info : Audio Coding 3
Format settings, Endianness : Big
Codec ID : A_AC3
Duration : 25 min 3 s
Bit rate mode : Constant
Bit rate : 192 kb/s
Channel(s) : 2 channels
Channel positions : Front: L R
Sampling rate : 48.0 kHz
Frame rate : 31.250 FPS (1536 spf)
Bit depth : 16 bits
Compression mode : Lossy
Stream size : 34.4 MiB (2%)
Title : English 2.0
Language : English
Service kind : Complete Main
Default : No
Forced : No

Audio #3
ID : 4
Format : AC-3
Format/Info : Audio Coding 3
Format settings, Endianness : Big
Codec ID : A_AC3
Duration : 25 min 3 s
Bit rate mode : Constant
Bit rate : 192 kb/s
Channel(s) : 2 channels
Channel positions : Front: L R
Sampling rate : 48.0 kHz
Frame rate : 31.250 FPS (1536 spf)
Bit depth : 16 bits
Compression mode : Lossy
Stream size : 34.4 MiB (2%)
Title : Japanese 2.0
Language : Japanese
Service kind : Complete Main
Default : No
Forced : No

Audio #4
ID : 5
Format : AC-3
Format/Info : Audio Coding 3
Format settings, Endianness : Big
Codec ID : A_AC3
Duration : 25 min 4 s
Bit rate mode : Constant
Bit rate : 384 kb/s
Channel(s) : 6 channels
Channel positions : Front: L C R, Side: L R, LFE
Sampling rate : 48.0 kHz
Frame rate : 31.250 FPS (1536 spf)
Bit depth : 16 bits
Compression mode : Lossy
Stream size : 68.9 MiB (4%)
Title : English 5.1
Language : English
Service kind : Complete Main
Default : No
Forced : No

Audio #5
ID : 6
Format : AC-3
Format/Info : Audio Coding 3
Format settings, Endianness : Big
Codec ID : A_AC3
Duration : 25 min 4 s
Bit rate mode : Constant
Bit rate : 384 kb/s
Channel(s) : 6 channels
Channel positions : Front: L C R, Side: L R, LFE
Sampling rate : 48.0 kHz
Frame rate : 31.250 FPS (1536 spf)
Bit depth : 16 bits
Compression mode : Lossy
Stream size : 68.9 MiB (4%)
Title : Japanese 5.1
Language : Japanese
Service kind : Complete Main
Default : No
Forced : No

Text #1
ID : 7
Format : UTF-8
Codec ID : S_TEXT/UTF8
Codec ID/Info : UTF-8 Plain Text
Bit rate : 0 b/s
Count of elements : 1
Stream size : 6.00 Bytes (0%)
Title : English [Forced]
Language : English
Default : No
Forced : Yes

Text #2
ID : 8
Format : UTF-8
Codec ID : S_TEXT/UTF8
Codec ID/Info : UTF-8 Plain Text
Duration : 24 min 34 s
Bit rate : 0 b/s
Count of elements : 6
Stream size : 161 Bytes (0%)
Title : European Spanish [Forced]
Language : Spanish
Default : No
Forced : Yes

Text #3
ID : 9
Format : UTF-8
Codec ID : S_TEXT/UTF8
Codec ID/Info : UTF-8 Plain Text
Duration : 24 min 34 s
Bit rate : 0 b/s
Count of elements : 6
Stream size : 159 Bytes (0%)
Title : Spanish [Forced]
Language : Spanish
Default : No
Forced : Yes

Text #4
ID : 10
Format : UTF-8
Codec ID : S_TEXT/UTF8
Codec ID/Info : UTF-8 Plain Text
Duration : 17 min 40 s
Bit rate : 0 b/s
Count of elements : 2
Stream size : 57.0 Bytes (0%)
Title : French [Forced]
Language : French
Default : No
Forced : Yes

Text #5
ID : 11
Format : UTF-8
Codec ID : S_TEXT/UTF8
Codec ID/Info : UTF-8 Plain Text
Duration : 24 min 34 s
Bit rate : 0 b/s
Count of elements : 5
Stream size : 122 Bytes (0%)
Title : Italian [Forced]
Language : Italian
Default : No
Forced : Yes

Text #6
ID : 12
Format : UTF-8
Codec ID : S_TEXT/UTF8
Codec ID/Info : UTF-8 Plain Text
Duration : 24 min 34 s
Bit rate : 0 b/s
Count of elements : 5
Stream size : 124 Bytes (0%)
Title : German [Forced]
Language : German
Default : No
Forced : Yes

Text #7
ID : 13
Format : UTF-8
Codec ID : S_TEXT/UTF8
Codec ID/Info : UTF-8 Plain Text
Duration : 24 min 34 s
Bit rate : 0 b/s
Count of elements : 6
Stream size : 165 Bytes (0%)
Title : Polish [Forced]
Language : Polish
Default : No
Forced : Yes

Text #8
ID : 14
Format : UTF-8
Codec ID : S_TEXT/UTF8
Codec ID/Info : UTF-8 Plain Text
Duration : 24 min 34 s
Bit rate : 0 b/s
Count of elements : 6
Stream size : 163 Bytes (0%)
Title : Turkish [Forced]
Language : Turkmen
Default : No
Forced : Yes

Text #9
ID : 15
Format : UTF-8
Codec ID : S_TEXT/UTF8
Codec ID/Info : UTF-8 Plain Text
Duration : 17 min 40 s
Bit rate : 0 b/s
Count of elements : 3
Stream size : 91.0 Bytes (0%)
Title : Brazilian Portuguese [Forced]
Language : Portuguese
Default : No
Forced : Yes

Text #10
ID : 16
Format : UTF-8
Codec ID : S_TEXT/UTF8
Codec ID/Info : UTF-8 Plain Text
Duration : 23 min 50 s
Bit rate : 46 b/s
Count of elements : 274
Stream size : 8.06 KiB (0%)
Title : English
Language : English
Default : No
Forced : No

Text #11
ID : 17
Format : UTF-8
Codec ID : S_TEXT/UTF8
Codec ID/Info : UTF-8 Plain Text
Duration : 24 min 33 s
Bit rate : 54 b/s
Count of elements : 369
Stream size : 9.75 KiB (0%)
Title : English [SDH]
Language : English
Default : No
Forced : No

Text #12
ID : 18
Format : UTF-8
Codec ID : S_TEXT/UTF8
Codec ID/Info : UTF-8 Plain Text
Duration : 22 min 57 s
Bit rate : 45 b/s
Count of elements : 263
Stream size : 7.72 KiB (0%)
Title : European Spanish
Language : Spanish
Default : No
Forced : No

Text #13
ID : 19
Format : UTF-8
Codec ID : S_TEXT/UTF8
Codec ID/Info : UTF-8 Plain Text
Duration : 24 min 34 s
Bit rate : 47 b/s
Count of elements : 266
Stream size : 8.57 KiB (0%)
Title : Spanish
Language : Spanish
Default : No
Forced : No

Text #14
ID : 20
Format : UTF-8
Codec ID : S_TEXT/UTF8
Codec ID/Info : UTF-8 Plain Text
Duration : 24 min 34 s
Bit rate : 50 b/s
Count of elements : 263
Stream size : 9.18 KiB (0%)
Title : French
Language : French
Default : No
Forced : No

Text #15
ID : 21
Format : UTF-8
Codec ID : S_TEXT/UTF8
Codec ID/Info : UTF-8 Plain Text
Duration : 24 min 34 s
Bit rate : 49 b/s
Count of elements : 266
Stream size : 8.87 KiB (0%)
Title : Italian
Language : Italian
Default : No
Forced : No

Text #16
ID : 22
Format : UTF-8
Codec ID : S_TEXT/UTF8
Codec ID/Info : UTF-8 Plain Text
Duration : 24 min 34 s
Bit rate : 48 b/s
Count of elements : 265
Stream size : 8.76 KiB (0%)
Title : German
Language : German
Default : No
Forced : No

Text #17
ID : 23
Format : UTF-8
Codec ID : S_TEXT/UTF8
Codec ID/Info : UTF-8 Plain Text
Duration : 24 min 34 s
Bit rate : 48 b/s
Count of elements : 266
Stream size : 8.70 KiB (0%)
Title : Polish
Language : Polish
Default : No
Forced : No

Text #18
ID : 24
Format : UTF-8
Codec ID : S_TEXT/UTF8
Codec ID/Info : UTF-8 Plain Text
Duration : 22 min 57 s
Bit rate : 52 b/s
Count of elements : 263
Stream size : 8.76 KiB (0%)
Title : Turkish
Language : Turkish
Default : No
Forced : No

Text #19
ID : 25
Format : UTF-8
Codec ID : S_TEXT/UTF8
Codec ID/Info : UTF-8 Plain Text
Duration : 22 min 57 s
Bit rate : 48 b/s
Count of elements : 263
Stream size : 8.11 KiB (0%)
Title : Brazilian Portuguese
Language : Portuguese
Default : No
Forced : No

Text #20
ID : 26
Format : UTF-8
Codec ID : S_TEXT/UTF8
Codec ID/Info : UTF-8 Plain Text
Duration : 24 min 15 s
Bit rate : 55 b/s
Count of elements : 237
Stream size : 9.93 KiB (0%)
Title : Japanese
Language : Japanese
Default : No
Forced : No

Text #21
ID : 27
Format : UTF-8
Codec ID : S_TEXT/UTF8
Codec ID/Info : UTF-8 Plain Text
Duration : 24 min 34 s
Bit rate : 76 b/s
Count of elements : 266
Stream size : 13.7 KiB (0%)
Title : Arabic
Language : Arabic
Default : No
Forced : No

Text #22
ID : 28
Format : UTF-8
Codec ID : S_TEXT/UTF8
Codec ID/Info : UTF-8 Plain Text
Duration : 22 min 57 s
Bit rate : 43 b/s
Count of elements : 263
Stream size : 7.31 KiB (0%)
Title : Danish
Language : Danish
Default : No
Forced : No

Text #23
ID : 29
Format : UTF-8
Codec ID : S_TEXT/UTF8
Codec ID/Info : UTF-8 Plain Text
Duration : 24 min 34 s
Bit rate : 48 b/s
Count of elements : 230
Stream size : 8.66 KiB (0%)
Title : Finnish
Language : Finnish
Default : No
Forced : No

Text #24
ID : 30
Format : UTF-8
Codec ID : S_TEXT/UTF8
Codec ID/Info : UTF-8 Plain Text
Duration : 23 min 18 s
Bit rate : 73 b/s
Count of elements : 267
Stream size : 12.6 KiB (0%)
Title : Hebrew
Language : Hebrew
Default : No
Forced : No

Text #25
ID : 31
Format : UTF-8
Codec ID : S_TEXT/UTF8
Codec ID/Info : UTF-8 Plain Text
Duration : 24 min 34 s
Bit rate : 62 b/s
Count of elements : 266
Stream size : 11.3 KiB (0%)
Title : Korean
Language : Korean
Default : No
Forced : No

Text #26
ID : 32
Format : UTF-8
Codec ID : S_TEXT/UTF8
Codec ID/Info : UTF-8 Plain Text
Duration : 24 min 34 s
Bit rate : 49 b/s
Count of elements : 216
Stream size : 8.96 KiB (0%)
Title : Dutch
Language : Dutch
Default : No
Forced : No

Text #27
ID : 33
Format : UTF-8
Codec ID : S_TEXT/UTF8
Codec ID/Info : UTF-8 Plain Text
Duration : 24 min 34 s
Bit rate : 43 b/s
Count of elements : 253
Stream size : 7.85 KiB (0%)
Title : Norwegian
Language : Norwegian Bokmal
Default : No
Forced : No

Text #28
ID : 34
Format : UTF-8
Codec ID : S_TEXT/UTF8
Codec ID/Info : UTF-8 Plain Text
Duration : 24 min 34 s
Bit rate : 44 b/s
Count of elements : 266
Stream size : 8.03 KiB (0%)
Title : Portuguese
Language : Portuguese
Default : No
Forced : No

Text #29
ID : 35
Format : UTF-8
Codec ID : S_TEXT/UTF8
Codec ID/Info : UTF-8 Plain Text
Duration : 23 min 17 s
Bit rate : 59 b/s
Count of elements : 266
Stream size : 10.1 KiB (0%)
Title : Romanian
Language : Romanian
Default : No
Forced : No

Text #30
ID : 36
Format : UTF-8
Codec ID : S_TEXT/UTF8
Codec ID/Info : UTF-8 Plain Text
Duration : 24 min 34 s
Bit rate : 47 b/s
Count of elements : 248
Stream size : 8.47 KiB (0%)
Title : Swedish
Language : Swedish
Default : No
Forced : No

Text #31
ID : 37
Format : UTF-8
Codec ID : S_TEXT/UTF8
Codec ID/Info : UTF-8 Plain Text
Duration : 24 min 34 s
Bit rate : 124 b/s
Count of elements : 266
Stream size : 22.5 KiB (0%)
Title : Thai
Language : Thai
Default : No
Forced : No

Text #32
ID : 38
Format : UTF-8
Codec ID : S_TEXT/UTF8
Codec ID/Info : UTF-8 Plain Text
Duration : 24 min 34 s
Bit rate : 50 b/s
Count of elements : 267
Stream size : 9.09 KiB (0%)
Title : Simplified Chinese
Language : Chinese
Default : No
Forced : No

Text #33
ID : 39
Format : UTF-8
Codec ID : S_TEXT/UTF8
Codec ID/Info : UTF-8 Plain Text
Duration : 24 min 34 s
Bit rate : 51 b/s
Count of elements : 266
Stream size : 9.27 KiB (0%)
Title : Traditional Chinese
Language : Chinese
Default : No
Forced : No

Text #34
ID : 40
Format : ASS
Codec ID : S_TEXT/ASS
Codec ID/Info : Advanced Sub Station Alpha
Duration : 23 min 22 s
Bit rate : 117 b/s
Count of elements : 274
Compression mode : Lossless
Stream size : 20.0 KiB (0%)
Title : Risens Team
Language : Russian
Default : No
Forced : No
ep2
General
Complete name : G:\Downloads3\Castlevania.2017.S01.1080p.WEB-DL.H.264-RUS-JAP-ENG-Multi10\Castlevania.S01E02.1080p.WEB-DL.mkv
Format : Matroska
Format version : Version 4 / Version 2
File size : 862 MiB
Duration : 23 min 4 s
Overall bit rate mode : Variable
Overall bit rate : 5 226 kb/s
Encoded date : UTC 2017-07-08 14:28:04
Writing application : mkvmerge v13.0.0 ('The Juggler') 64bit
Writing library : libebml v1.3.4 + libmatroska v1.4.5

Video
ID : 1
Format : AVC
Format/Info : Advanced Video Codec
Format profile : [email protected]
Format settings, CABAC : Yes
Format settings, ReFrames : 3 frames
Codec ID : V_MPEG4/ISO/AVC
Duration : 23 min 3 s
Bit rate mode : Variable
Bit rate : 4 020 kb/s
Maximum bit rate : 6 030 kb/s
Width : 1 920 pixels
Height : 1 080 pixels
Display aspect ratio : 16:9
Frame rate mode : Constant
Frame rate : 23.976 (24000/1001) FPS
Color space : YUV
Chroma subsampling : 4:2:0
Bit depth : 8 bits
Scan type : Progressive
Bits/(Pixel*Frame) : 0.081
Stream size : 639 MiB (74%)
Writing library : x264 core 118
Encoding settings : cabac=1 / ref=3 / deblock=1:0:0 / analyse=0x1:0x111 / me=umh / subme=10 / psy=1 / psy_rd=1.00:0.00 / mixed_ref=1 / me_range=24 / chroma_me=1 / trellis=2 / 8x8dct=0 / cqm=0 / deadzone=21,11 / fast_pskip=1 / chroma_qp_offset=-2 / threads=6 / sliced_threads=0 / nr=0 / decimate=1 / interlaced=0 / bluray_compat=0 / constrained_intra=0 / bframes=2 / b_pyramid=0 / b_adapt=2 / b_bias=0 / direct=3 / weightb=1 / open_gop=0 / weightp=2 / keyint=48 / keyint_min=25 / scenecut=0 / intra_refresh=0 / rc_lookahead=0 / rc=2pass / mbtree=1 / bitrate=4020 / ratetol=1.0 / qcomp=0.50 / qpmin=6 / qpmax=51 / qpstep=4 / cplxblur=20.0 / qblur=0.5 / vbv_maxrate=6030 / vbv_bufsize=8040 / nal_hrd=vbr / ip_ratio=1.40 / aq=1:1.00
Default : Yes
Forced : No

Audio #1
ID : 2
Format : AAC
Format/Info : Advanced Audio Codec
Format profile : LC
Codec ID : A_AAC
Duration : 23 min 4 s
Bit rate : 196 kb/s
Channel(s) : 2 channels
Channel positions : Front: L R
Sampling rate : 48.0 kHz
Frame rate : 46.875 FPS (1024 spf)
Compression mode : Lossy
Stream size : 32.3 MiB (4%)
Title : SunshineStudio
Language : Russian
Default : Yes
Forced : No

Audio #2
ID : 3
Format : AC-3
Format/Info : Audio Coding 3
Format settings, Endianness : Big
Codec ID : A_AC3
Duration : 23 min 3 s
Bit rate mode : Constant
Bit rate : 192 kb/s
Channel(s) : 2 channels
Channel positions : Front: L R
Sampling rate : 48.0 kHz
Frame rate : 31.250 FPS (1536 spf)
Bit depth : 16 bits
Compression mode : Lossy
Stream size : 31.7 MiB (4%)
Title : English 2.0
Language : English
Service kind : Complete Main
Default : No
Forced : No

Audio #3
ID : 4
Format : AC-3
Format/Info : Audio Coding 3
Format settings, Endianness : Big
Codec ID : A_AC3
Duration : 23 min 3 s
Bit rate mode : Constant
Bit rate : 192 kb/s
Channel(s) : 2 channels
Channel positions : Front: L R
Sampling rate : 48.0 kHz
Frame rate : 31.250 FPS (1536 spf)
Bit depth : 16 bits
Compression mode : Lossy
Stream size : 31.7 MiB (4%)
Title : Japanese 2.0
Language : Japanese
Service kind : Complete Main
Default : No
Forced : No

Audio #4
ID : 5
Format : AC-3
Format/Info : Audio Coding 3
Format settings, Endianness : Big
Codec ID : A_AC3
Duration : 23 min 3 s
Bit rate mode : Constant
Bit rate : 384 kb/s
Channel(s) : 6 channels
Channel positions : Front: L C R, Side: L R, LFE
Sampling rate : 48.0 kHz
Frame rate : 31.250 FPS (1536 spf)
Bit depth : 16 bits
Compression mode : Lossy
Stream size : 63.4 MiB (7%)
Title : English 5.1
Language : English
Service kind : Complete Main
Default : No
Forced : No

Audio #5
ID : 6
Format : AC-3
Format/Info : Audio Coding 3
Format settings, Endianness : Big
Codec ID : A_AC3
Duration : 23 min 3 s
Bit rate mode : Constant
Bit rate : 384 kb/s
Channel(s) : 6 channels
Channel positions : Front: L C R, Side: L R, LFE
Sampling rate : 48.0 kHz
Frame rate : 31.250 FPS (1536 spf)
Bit depth : 16 bits
Compression mode : Lossy
Stream size : 63.4 MiB (7%)
Title : Japanese 5.1
Language : Japanese
Service kind : Complete Main
Default : No
Forced : No

Text #1
ID : 7
Format : UTF-8
Codec ID : S_TEXT/UTF8
Codec ID/Info : UTF-8 Plain Text
Bit rate : 0 b/s
Count of elements : 1
Stream size : 6.00 Bytes (0%)
Title : English [Forced]
Language : English
Default : No
Forced : Yes

Text #2
ID : 8
Format : UTF-8
Codec ID : S_TEXT/UTF8
Codec ID/Info : UTF-8 Plain Text
Duration : 17 min 7 s
Bit rate : 0 b/s
Count of elements : 2
Stream size : 45.0 Bytes (0%)
Title : European Spanish [Forced]
Language : Spanish
Default : No
Forced : Yes

Text #3
ID : 9
Format : UTF-8
Codec ID : S_TEXT/UTF8
Codec ID/Info : UTF-8 Plain Text
Duration : 17 min 7 s
Bit rate : 0 b/s
Count of elements : 2
Stream size : 43.0 Bytes (0%)
Title : Spanish [Forced]
Language : Spanish
Default : No
Forced : Yes

Text #4
ID : 10
Format : UTF-8
Codec ID : S_TEXT/UTF8
Codec ID/Info : UTF-8 Plain Text
Duration : 17 min 7 s
Bit rate : 0 b/s
Count of elements : 2
Stream size : 37.0 Bytes (0%)
Title : Polish [Forced]
Language : Polish
Default : No
Forced : Yes

Text #5
ID : 11
Format : UTF-8
Codec ID : S_TEXT/UTF8
Codec ID/Info : UTF-8 Plain Text
Duration : 17 min 7 s
Bit rate : 0 b/s
Count of elements : 2
Stream size : 47.0 Bytes (0%)
Title : Turkish [Forced]
Language : Turkmen
Default : No
Forced : Yes

Text #6
ID : 12
Format : UTF-8
Codec ID : S_TEXT/UTF8
Codec ID/Info : UTF-8 Plain Text
Duration : 17 min 7 s
Bit rate : 0 b/s
Count of elements : 2
Stream size : 35.0 Bytes (0%)
Title : Brazilian Portuguese [Forced]
Language : Portuguese
Default : No
Forced : Yes

Text #7
ID : 13
Format : UTF-8
Codec ID : S_TEXT/UTF8
Codec ID/Info : UTF-8 Plain Text
Duration : 22 min 13 s
Bit rate : 64 b/s
Count of elements : 307
Stream size : 10.5 KiB (0%)
Title : English
Language : English
Default : No
Forced : No

Text #8
ID : 14
Format : UTF-8
Codec ID : S_TEXT/UTF8
Codec ID/Info : UTF-8 Plain Text
Duration : 22 min 20 s
Bit rate : 68 b/s
Count of elements : 355
Stream size : 11.2 KiB (0%)
Title : English [SDH]
Language : English
Default : No
Forced : No

Text #9
ID : 15
Format : UTF-8
Codec ID : S_TEXT/UTF8
Codec ID/Info : UTF-8 Plain Text
Duration : 22 min 18 s
Bit rate : 58 b/s
Count of elements : 305
Stream size : 9.58 KiB (0%)
Title : European Spanish
Language : Spanish
Default : No
Forced : No

Text #10
ID : 16
Format : UTF-8
Codec ID : S_TEXT/UTF8
Codec ID/Info : UTF-8 Plain Text
Duration : 22 min 18 s
Bit rate : 65 b/s
Count of elements : 305
Stream size : 10.6 KiB (0%)
Title : Spanish
Language : Spanish
Default : No
Forced : No

Text #11
ID : 17
Format : UTF-8
Codec ID : S_TEXT/UTF8
Codec ID/Info : UTF-8 Plain Text
Duration : 22 min 18 s
Bit rate : 65 b/s
Count of elements : 301
Stream size : 10.7 KiB (0%)
Title : French
Language : French
Default : No
Forced : No

Text #12
ID : 18
Format : UTF-8
Codec ID : S_TEXT/UTF8
Codec ID/Info : UTF-8 Plain Text
Duration : 22 min 18 s
Bit rate : 72 b/s
Count of elements : 304
Stream size : 11.9 KiB (0%)
Title : Italian
Language : Italian
Default : No
Forced : No

Text #13
ID : 19
Format : UTF-8
Codec ID : S_TEXT/UTF8
Codec ID/Info : UTF-8 Plain Text
Duration : 22 min 18 s
Bit rate : 71 b/s
Count of elements : 304
Stream size : 11.7 KiB (0%)
Title : German
Language : German
Default : No
Forced : No

Text #14
ID : 20
Format : UTF-8
Codec ID : S_TEXT/UTF8
Codec ID/Info : UTF-8 Plain Text
Duration : 22 min 18 s
Bit rate : 64 b/s
Count of elements : 305
Stream size : 10.6 KiB (0%)
Title : Polish
Language : Polish
Default : No
Forced : No

Text #15
ID : 21
Format : UTF-8
Codec ID : S_TEXT/UTF8
Codec ID/Info : UTF-8 Plain Text
Duration : 22 min 18 s
Bit rate : 67 b/s
Count of elements : 305
Stream size : 11.0 KiB (0%)
Title : Turkish
Language : Turkish
Default : No
Forced : No

Text #16
ID : 22
Format : UTF-8
Codec ID : S_TEXT/UTF8
Codec ID/Info : UTF-8 Plain Text
Duration : 22 min 18 s
Bit rate : 67 b/s
Count of elements : 305
Stream size : 11.0 KiB (0%)
Title : Brazilian Portuguese
Language : Portuguese
Default : No
Forced : No

Text #17
ID : 23
Format : UTF-8
Codec ID : S_TEXT/UTF8
Codec ID/Info : UTF-8 Plain Text
Duration : 22 min 15 s
Bit rate : 66 b/s
Count of elements : 289
Stream size : 10.9 KiB (0%)
Title : Japanese
Language : Japanese
Default : No
Forced : No

Text #18
ID : 24
Format : UTF-8
Codec ID : S_TEXT/UTF8
Codec ID/Info : UTF-8 Plain Text
Duration : 22 min 18 s
Bit rate : 106 b/s
Count of elements : 305
Stream size : 17.5 KiB (0%)
Title : Arabic
Language : Arabic
Default : No
Forced : No

Text #19
ID : 25
Format : UTF-8
Codec ID : S_TEXT/UTF8
Codec ID/Info : UTF-8 Plain Text
Duration : 22 min 18 s
Bit rate : 61 b/s
Count of elements : 304
Stream size : 10.1 KiB (0%)
Title : Danish
Language : Danish
Default : No
Forced : No

Text #20
ID : 26
Format : UTF-8
Codec ID : S_TEXT/UTF8
Codec ID/Info : UTF-8 Plain Text
Duration : 22 min 18 s
Bit rate : 67 b/s
Count of elements : 276
Stream size : 11.0 KiB (0%)
Title : Finnish
Language : Finnish
Default : No
Forced : No

Text #21
ID : 27
Format : UTF-8
Codec ID : S_TEXT/UTF8
Codec ID/Info : UTF-8 Plain Text
Duration : 21 min 3 s
Bit rate : 112 b/s
Count of elements : 298
Stream size : 17.4 KiB (0%)
Title : Hebrew
Language : Hebrew
Default : No
Forced : No

Text #22
ID : 28
Format : UTF-8
Codec ID : S_TEXT/UTF8
Codec ID/Info : UTF-8 Plain Text
Duration : 22 min 18 s
Bit rate : 82 b/s
Count of elements : 305
Stream size : 13.6 KiB (0%)
Title : Korean
Language : Korean
Default : No
Forced : No

Text #23
ID : 29
Format : UTF-8
Codec ID : S_TEXT/UTF8
Codec ID/Info : UTF-8 Plain Text
Duration : 22 min 18 s
Bit rate : 63 b/s
Count of elements : 258
Stream size : 10.4 KiB (0%)
Title : Dutch
Language : Dutch
Default : No
Forced : No

Text #24
ID : 30
Format : UTF-8
Codec ID : S_TEXT/UTF8
Codec ID/Info : UTF-8 Plain Text
Duration : 22 min 18 s
Bit rate : 62 b/s
Count of elements : 300
Stream size : 10.3 KiB (0%)
Title : Norwegian
Language : Norwegian Bokmal
Default : No
Forced : No

Text #25
ID : 31
Format : UTF-8
Codec ID : S_TEXT/UTF8
Codec ID/Info : UTF-8 Plain Text
Duration : 22 min 18 s
Bit rate : 66 b/s
Count of elements : 305
Stream size : 10.8 KiB (0%)
Title : Portuguese
Language : Portuguese
Default : No
Forced : No

Text #26
ID : 32
Format : UTF-8
Codec ID : S_TEXT/UTF8
Codec ID/Info : UTF-8 Plain Text
Duration : 21 min 1 s
Bit rate : 83 b/s
Count of elements : 301
Stream size : 12.9 KiB (0%)
Title : Romanian
Language : Romanian
Default : No
Forced : No

Text #27
ID : 33
Format : UTF-8
Codec ID : S_TEXT/UTF8
Codec ID/Info : UTF-8 Plain Text
Duration : 22 min 18 s
Bit rate : 60 b/s
Count of elements : 243
Stream size : 9.91 KiB (0%)
Title : Swedish
Language : Swedish
Default : No
Forced : No

Text #28
ID : 34
Format : UTF-8
Codec ID : S_TEXT/UTF8
Codec ID/Info : UTF-8 Plain Text
Duration : 22 min 18 s
Bit rate : 155 b/s
Count of elements : 305
Stream size : 25.4 KiB (0%)
Title : Thai
Language : Thai
Default : No
Forced : No

Text #29
ID : 35
Format : UTF-8
Codec ID : S_TEXT/UTF8
Codec ID/Info : UTF-8 Plain Text
Duration : 22 min 18 s
Bit rate : 66 b/s
Count of elements : 305
Stream size : 10.9 KiB (0%)
Title : Simplified Chinese
Language : Chinese
Default : No
Forced : No

Text #30
ID : 36
Format : UTF-8
Codec ID : S_TEXT/UTF8
Codec ID/Info : UTF-8 Plain Text
Duration : 22 min 18 s
Bit rate : 67 b/s
Count of elements : 305
Stream size : 11.1 KiB (0%)
Title : Traditional Chinese
Language : Chinese
Default : No
Forced : No

Text #31
ID : 37
Format : ASS
Codec ID : S_TEXT/ASS
Codec ID/Info : Advanced Sub Station Alpha
Duration : 21 min 11 s
Bit rate : 156 b/s
Count of elements : 299
Compression mode : Lossless
Stream size : 24.3 KiB (0%)
Title : Risens Team
Language : Russian
Default : No
Forced : No
ep3
General
Complete name : G:\Downloads3\Castlevania.2017.S01.1080p.WEB-DL.H.264-RUS-JAP-ENG-Multi10\Castlevania.S01E03.1080p.WEB-DL.mkv
Format : Matroska
Format version : Version 4 / Version 2
File size : 941 MiB
Duration : 23 min 58 s
Overall bit rate mode : Variable
Overall bit rate : 5 492 kb/s
Encoded date : UTC 2017-07-08 14:28:46
Writing application : mkvmerge v13.0.0 ('The Juggler') 64bit
Writing library : libebml v1.3.4 + libmatroska v1.4.5

Video
ID : 1
Format : AVC
Format/Info : Advanced Video Codec
Format profile : [email protected]
Format settings, CABAC : Yes
Format settings, ReFrames : 3 frames
Codec ID : V_MPEG4/ISO/AVC
Duration : 23 min 57 s
Bit rate mode : Variable
Bit rate : 4 220 kb/s
Maximum bit rate : 6 330 kb/s
Width : 1 920 pixels
Height : 1 080 pixels
Display aspect ratio : 16:9
Frame rate mode : Constant
Frame rate : 23.976 (24000/1001) FPS
Color space : YUV
Chroma subsampling : 4:2:0
Bit depth : 8 bits
Scan type : Progressive
Bits/(Pixel*Frame) : 0.085
Stream size : 709 MiB (75%)
Writing library : x264 core 118
Encoding settings : cabac=1 / ref=3 / deblock=1:0:0 / analyse=0x1:0x111 / me=umh / subme=10 / psy=1 / psy_rd=1.00:0.00 / mixed_ref=1 / me_range=24 / chroma_me=1 / trellis=2 / 8x8dct=0 / cqm=0 / deadzone=21,11 / fast_pskip=1 / chroma_qp_offset=-2 / threads=8 / sliced_threads=0 / nr=0 / decimate=1 / interlaced=0 / bluray_compat=0 / constrained_intra=0 / bframes=2 / b_pyramid=0 / b_adapt=2 / b_bias=0 / direct=3 / weightb=1 / open_gop=0 / weightp=2 / keyint=48 / keyint_min=25 / scenecut=0 / intra_refresh=0 / rc_lookahead=0 / rc=2pass / mbtree=1 / bitrate=4220 / ratetol=1.0 / qcomp=0.50 / qpmin=6 / qpmax=51 / qpstep=4 / cplxblur=20.0 / qblur=0.5 / vbv_maxrate=6330 / vbv_bufsize=8440 / nal_hrd=vbr / ip_ratio=1.40 / aq=1:1.00
Default : Yes
Forced : No

Audio #1
ID : 2
Format : AAC
Format/Info : Advanced Audio Codec
Format profile : LC
Codec ID : A_AAC
Duration : 23 min 58 s
Bit rate : 196 kb/s
Channel(s) : 2 channels
Channel positions : Front: L R
Sampling rate : 48.0 kHz
Frame rate : 46.875 FPS (1024 spf)
Compression mode : Lossy
Stream size : 33.6 MiB (4%)
Title : SunshineStudio
Language : Russian
Default : Yes
Forced : No

Audio #2
ID : 3
Format : AC-3
Format/Info : Audio Coding 3
Format settings, Endianness : Big
Codec ID : A_AC3
Duration : 23 min 57 s
Bit rate mode : Constant
Bit rate : 192 kb/s
Channel(s) : 2 channels
Channel positions : Front: L R
Sampling rate : 48.0 kHz
Frame rate : 31.250 FPS (1536 spf)
Bit depth : 16 bits
Compression mode : Lossy
Stream size : 32.9 MiB (3%)
Title : English 2.0
Language : English
Service kind : Complete Main
Default : No
Forced : No

Audio #3
ID : 4
Format : AC-3
Format/Info : Audio Coding 3
Format settings, Endianness : Big
Codec ID : A_AC3
Duration : 23 min 57 s
Bit rate mode : Constant
Bit rate : 192 kb/s
Channel(s) : 2 channels
Channel positions : Front: L R
Sampling rate : 48.0 kHz
Frame rate : 31.250 FPS (1536 spf)
Bit depth : 16 bits
Compression mode : Lossy
Stream size : 32.9 MiB (3%)
Title : Japanese 2.0
Language : Japanese
Service kind : Complete Main
Default : No
Forced : No

Audio #4
ID : 5
Format : AC-3
Format/Info : Audio Coding 3
Format settings, Endianness : Big
Codec ID : A_AC3
Duration : 23 min 58 s
Bit rate mode : Constant
Bit rate : 384 kb/s
Channel(s) : 6 channels
Channel positions : Front: L C R, Side: L R, LFE
Sampling rate : 48.0 kHz
Frame rate : 31.250 FPS (1536 spf)
Bit depth : 16 bits
Compression mode : Lossy
Stream size : 65.8 MiB (7%)
Title : English 5.1
Language : English
Service kind : Complete Main
Default : No
Forced : No

Audio #5
ID : 6
Format : AC-3
Format/Info : Audio Coding 3
Format settings, Endianness : Big
Codec ID : A_AC3
Duration : 23 min 58 s
Bit rate mode : Constant
Bit rate : 384 kb/s
Channel(s) : 6 channels
Channel positions : Front: L C R, Side: L R, LFE
Sampling rate : 48.0 kHz
Frame rate : 31.250 FPS (1536 spf)
Bit depth : 16 bits
Compression mode : Lossy
Stream size : 65.8 MiB (7%)
Title : Japanese 5.1
Language : Japanese
Service kind : Complete Main
Default : No
Forced : No

Text #1
ID : 7
Format : UTF-8
Codec ID : S_TEXT/UTF8
Codec ID/Info : UTF-8 Plain Text
Bit rate : 0 b/s
Count of elements : 1
Stream size : 6.00 Bytes (0%)
Title : English [Forced]
Language : English
Default : No
Forced : Yes

Text #2
ID : 8
Format : UTF-8
Codec ID : S_TEXT/UTF8
Codec ID/Info : UTF-8 Plain Text
Duration : 20 min 59 s
Bit rate : 58 b/s
Count of elements : 280
Stream size : 8.97 KiB (0%)
Title : English
Language : English
Default : No
Forced : No

Text #3
ID : 9
Format : UTF-8
Codec ID : S_TEXT/UTF8
Codec ID/Info : UTF-8 Plain Text
Duration : 22 min 7 s
Bit rate : 60 b/s
Count of elements : 330
Stream size : 9.74 KiB (0%)
Title : English [SDH]
Language : English
Default : No
Forced : No

Text #4
ID : 10
Format : UTF-8
Codec ID : S_TEXT/UTF8
Codec ID/Info : UTF-8 Plain Text
Duration : 22 min 11 s
Bit rate : 49 b/s
Count of elements : 244
Stream size : 8.07 KiB (0%)
Title : European Spanish
Language : Spanish
Default : No
Forced : No

Text #5
ID : 11
Format : UTF-8
Codec ID : S_TEXT/UTF8
Codec ID/Info : UTF-8 Plain Text
Duration : 22 min 11 s
Bit rate : 55 b/s
Count of elements : 244
Stream size : 9.04 KiB (0%)
Title : Spanish
Language : Spanish
Default : No
Forced : No

Text #6
ID : 12
Format : UTF-8
Codec ID : S_TEXT/UTF8
Codec ID/Info : UTF-8 Plain Text
Duration : 22 min 11 s
Bit rate : 55 b/s
Count of elements : 244
Stream size : 9.09 KiB (0%)
Title : French
Language : French
Default : No
Forced : No

Text #7
ID : 13
Format : UTF-8
Codec ID : S_TEXT/UTF8
Codec ID/Info : UTF-8 Plain Text
Duration : 22 min 11 s
Bit rate : 60 b/s
Count of elements : 244
Stream size : 9.82 KiB (0%)
Title : Italian
Language : Italian
Default : No
Forced : No

Text #8
ID : 14
Format : UTF-8
Codec ID : S_TEXT/UTF8
Codec ID/Info : UTF-8 Plain Text
Duration : 22 min 11 s
Bit rate : 61 b/s
Count of elements : 244
Stream size : 9.97 KiB (0%)
Title : German
Language : German
Default : No
Forced : No

Text #9
ID : 15
Format : UTF-8
Codec ID : S_TEXT/UTF8
Codec ID/Info : UTF-8 Plain Text
Duration : 22 min 11 s
Bit rate : 55 b/s
Count of elements : 244
Stream size : 9.03 KiB (0%)
Title : Polish
Language : Polish
Default : No
Forced : No

Text #10
ID : 16
Format : UTF-8
Codec ID : S_TEXT/UTF8
Codec ID/Info : UTF-8 Plain Text
Duration : 22 min 11 s
Bit rate : 56 b/s
Count of elements : 244
Stream size : 9.21 KiB (0%)
Title : Turkish
Language : Turkish
Default : No
Forced : No

Text #11
ID : 17
Format : UTF-8
Codec ID : S_TEXT/UTF8
Codec ID/Info : UTF-8 Plain Text
Duration : 22 min 11 s
Bit rate : 58 b/s
Count of elements : 244
Stream size : 9.49 KiB (0%)
Title : Brazilian Portuguese
Language : Portuguese
Default : No
Forced : No

Text #12
ID : 18
Format : UTF-8
Codec ID : S_TEXT/UTF8
Codec ID/Info : UTF-8 Plain Text
Duration : 23 min 8 s
Bit rate : 57 b/s
Count of elements : 252
Stream size : 9.70 KiB (0%)
Title : Japanese
Language : Japanese
Default : No
Forced : No

Text #13
ID : 19
Format : UTF-8
Codec ID : S_TEXT/UTF8
Codec ID/Info : UTF-8 Plain Text
Duration : 22 min 11 s
Bit rate : 91 b/s
Count of elements : 244
Stream size : 14.8 KiB (0%)
Title : Arabic
Language : Arabic
Default : No
Forced : No

Text #14
ID : 20
Format : UTF-8
Codec ID : S_TEXT/UTF8
Codec ID/Info : UTF-8 Plain Text
Duration : 22 min 11 s
Bit rate : 51 b/s
Count of elements : 244
Stream size : 8.38 KiB (0%)
Title : Danish
Language : Danish
Default : No
Forced : No

Text #15
ID : 21
Format : UTF-8
Codec ID : S_TEXT/UTF8
Codec ID/Info : UTF-8 Plain Text
Duration : 22 min 11 s
Bit rate : 54 b/s
Count of elements : 191
Stream size : 8.86 KiB (0%)
Title : Finnish
Language : Finnish
Default : No
Forced : No

Text #16
ID : 22
Format : UTF-8
Codec ID : S_TEXT/UTF8
Codec ID/Info : UTF-8 Plain Text
Duration : 20 min 54 s
Bit rate : 88 b/s
Count of elements : 245
Stream size : 13.5 KiB (0%)
Title : Hebrew
Language : Hebrew
Default : No
Forced : No

Text #17
ID : 23
Format : UTF-8
Codec ID : S_TEXT/UTF8
Codec ID/Info : UTF-8 Plain Text
Duration : 22 min 11 s
Bit rate : 72 b/s
Count of elements : 246
Stream size : 11.7 KiB (0%)
Title : Korean
Language : Korean
Default : No
Forced : No

Text #18
ID : 24
Format : UTF-8
Codec ID : S_TEXT/UTF8
Codec ID/Info : UTF-8 Plain Text
Duration : 22 min 11 s
Bit rate : 57 b/s
Count of elements : 228
Stream size : 9.33 KiB (0%)
Title : Dutch
Language : Dutch
Default : No
Forced : No

Text #19
ID : 25
Format : UTF-8
Codec ID : S_TEXT/UTF8
Codec ID/Info : UTF-8 Plain Text
Duration : 22 min 11 s
Bit rate : 53 b/s
Count of elements : 241
Stream size : 8.71 KiB (0%)
Title : Norwegian
Language : Norwegian Bokmal
Default : No
Forced : No

Text #20
ID : 26
Format : UTF-8
Codec ID : S_TEXT/UTF8
Codec ID/Info : UTF-8 Plain Text
Duration : 22 min 11 s
Bit rate : 58 b/s
Count of elements : 244
Stream size : 9.44 KiB (0%)
Title : Portuguese
Language : Portuguese
Default : No
Forced : No

Text #21
ID : 27
Format : UTF-8
Codec ID : S_TEXT/UTF8
Codec ID/Info : UTF-8 Plain Text
Duration : 20 min 53 s
Bit rate : 68 b/s
Count of elements : 245
Stream size : 10.5 KiB (0%)
Title : Romanian
Language : Romanian
Default : No
Forced : No

Text #22
ID : 28
Format : UTF-8
Codec ID : S_TEXT/UTF8
Codec ID/Info : UTF-8 Plain Text
Duration : 22 min 11 s
Bit rate : 57 b/s
Count of elements : 239
Stream size : 9.30 KiB (0%)
Title : Swedish
Language : Swedish
Default : No
Forced : No

Text #23
ID : 29
Format : UTF-8
Codec ID : S_TEXT/UTF8
Codec ID/Info : UTF-8 Plain Text
Duration : 22 min 11 s
Bit rate : 148 b/s
Count of elements : 244
Stream size : 24.1 KiB (0%)
Title : Thai
Language : Thai
Default : No
Forced : No

Text #24
ID : 30
Format : UTF-8
Codec ID : S_TEXT/UTF8
Codec ID/Info : UTF-8 Plain Text
Duration : 22 min 11 s
Bit rate : 54 b/s
Count of elements : 244
Stream size : 8.90 KiB (0%)
Title : Simplified Chinese
Language : Chinese
Default : No
Forced : No

Text #25
ID : 31
Format : UTF-8
Codec ID : S_TEXT/UTF8
Codec ID/Info : UTF-8 Plain Text
Duration : 22 min 11 s
Bit rate : 57 b/s
Count of elements : 244
Stream size : 9.32 KiB (0%)
Title : Traditional Chinese
Language : Chinese
Default : No
Forced : No

Text #26
ID : 32
Format : ASS
Codec ID : S_TEXT/ASS
Codec ID/Info : Advanced Sub Station Alpha
Duration : 22 min 0 s
Bit rate : 131 b/s
Count of elements : 269
Compression mode : Lossless
Stream size : 21.2 KiB (0%)
Title : Risens Team
Language : Russian
Default : No
Forced : No
ep4
General
Complete name : G:\Downloads3\Castlevania.2017.S01.1080p.WEB-DL.H.264-RUS-JAP-ENG-Multi10\Castlevania.S01E04.1080p.WEB-DL.mkv
Format : Matroska
Format version : Version 4 / Version 2
File size : 939 MiB
Duration : 23 min 22 s
Overall bit rate mode : Variable
Overall bit rate : 5 618 kb/s
Encoded date : UTC 2017-07-08 14:29:17
Writing application : mkvmerge v13.0.0 ('The Juggler') 64bit
Writing library : libebml v1.3.4 + libmatroska v1.4.5

Video
ID : 1
Format : AVC
Format/Info : Advanced Video Codec
Format profile : [email protected]
Format settings, CABAC : Yes
Format settings, ReFrames : 3 frames
Codec ID : V_MPEG4/ISO/AVC
Duration : 23 min 21 s
Bit rate mode : Variable
Bit rate : 4 420 kb/s
Maximum bit rate : 6 630 kb/s
Width : 1 920 pixels
Height : 1 080 pixels
Display aspect ratio : 16:9
Frame rate mode : Constant
Frame rate : 23.976 (24000/1001) FPS
Color space : YUV
Chroma subsampling : 4:2:0
Bit depth : 8 bits
Scan type : Progressive
Bits/(Pixel*Frame) : 0.089
Stream size : 713 MiB (76%)
Writing library : x264 core 118
Encoding settings : cabac=1 / ref=3 / deblock=1:0:0 / analyse=0x1:0x111 / me=umh / subme=10 / psy=1 / psy_rd=1.00:0.00 / mixed_ref=1 / me_range=24 / chroma_me=1 / trellis=2 / 8x8dct=0 / cqm=0 / deadzone=21,11 / fast_pskip=1 / chroma_qp_offset=-2 / threads=8 / sliced_threads=0 / nr=0 / decimate=1 / interlaced=0 / bluray_compat=0 / constrained_intra=0 / bframes=2 / b_pyramid=0 / b_adapt=2 / b_bias=0 / direct=3 / weightb=1 / open_gop=0 / weightp=2 / keyint=48 / keyint_min=25 / scenecut=0 / intra_refresh=0 / rc_lookahead=0 / rc=2pass / mbtree=1 / bitrate=4420 / ratetol=1.0 / qcomp=0.50 / qpmin=6 / qpmax=51 / qpstep=4 / cplxblur=20.0 / qblur=0.5 / vbv_maxrate=6630 / vbv_bufsize=8840 / nal_hrd=vbr / ip_ratio=1.40 / aq=1:1.00
Default : Yes
Forced : No

Audio #1
ID : 2
Format : AAC
Format/Info : Advanced Audio Codec
Format profile : LC
Codec ID : A_AAC
Duration : 23 min 22 s
Bit rate : 196 kb/s
Channel(s) : 2 channels
Channel positions : Front: L R
Sampling rate : 48.0 kHz
Frame rate : 46.875 FPS (1024 spf)
Compression mode : Lossy
Stream size : 32.8 MiB (3%)
Title : SunshineStudio
Language : Russian
Default : Yes
Forced : No

Audio #2
ID : 3
Format : AC-3
Format/Info : Audio Coding 3
Format settings, Endianness : Big
Codec ID : A_AC3
Duration : 23 min 21 s
Bit rate mode : Constant
Bit rate : 192 kb/s
Channel(s) : 2 channels
Channel positions : Front: L R
Sampling rate : 48.0 kHz
Frame rate : 31.250 FPS (1536 spf)
Bit depth : 16 bits
Compression mode : Lossy
Stream size : 32.1 MiB (3%)
Title : English 2.0
Language : English
Service kind : Complete Main
Default : No
Forced : No

Audio #3
ID : 4
Format : AC-3
Format/Info : Audio Coding 3
Format settings, Endianness : Big
Codec ID : A_AC3
Duration : 23 min 21 s
Bit rate mode : Constant
Bit rate : 192 kb/s
Channel(s) : 2 channels
Channel positions : Front: L R
Sampling rate : 48.0 kHz
Frame rate : 31.250 FPS (1536 spf)
Bit depth : 16 bits
Compression mode : Lossy
Stream size : 32.1 MiB (3%)
Title : Japanese 2.0
Language : Japanese
Service kind : Complete Main
Default : No
Forced : No

Audio #4
ID : 5
Format : AC-3
Format/Info : Audio Coding 3
Format settings, Endianness : Big
Codec ID : A_AC3
Duration : 23 min 22 s
Bit rate mode : Constant
Bit rate : 384 kb/s
Channel(s) : 6 channels
Channel positions : Front: L C R, Side: L R, LFE
Sampling rate : 48.0 kHz
Frame rate : 31.250 FPS (1536 spf)
Bit depth : 16 bits
Compression mode : Lossy
Stream size : 64.2 MiB (7%)
Title : English 5.1
Language : English
Service kind : Complete Main
Default : No
Forced : No

Audio #5
ID : 6
Format : AC-3
Format/Info : Audio Coding 3
Format settings, Endianness : Big
Codec ID : A_AC3
Duration : 23 min 22 s
Bit rate mode : Constant
Bit rate : 384 kb/s
Channel(s) : 6 channels
Channel positions : Front: L C R, Side: L R, LFE
Sampling rate : 48.0 kHz
Frame rate : 31.250 FPS (1536 spf)
Bit depth : 16 bits
Compression mode : Lossy
Stream size : 64.2 MiB (7%)
Title : Japanese 5.1
Language : Japanese
Service kind : Complete Main
Default : No
Forced : No

Text #1
ID : 7
Format : UTF-8
Codec ID : S_TEXT/UTF8
Codec ID/Info : UTF-8 Plain Text
Bit rate : 0 b/s
Count of elements : 1
Stream size : 6.00 Bytes (0%)
Title : English [Forced]
Language : English
Default : No
Forced : Yes

Text #2
ID : 8
Format : UTF-8
Codec ID : S_TEXT/UTF8
Codec ID/Info : UTF-8 Plain Text
Duration : 22 min 22 s
Bit rate : 43 b/s
Count of elements : 268
Stream size : 7.17 KiB (0%)
Title : English
Language : English
Default : No
Forced : No

Text #3
ID : 9
Format : UTF-8
Codec ID : S_TEXT/UTF8
Codec ID/Info : UTF-8 Plain Text
Duration : 22 min 37 s
Bit rate : 55 b/s
Count of elements : 388
Stream size : 9.15 KiB (0%)
Title : English [SDH]
Language : English
Default : No
Forced : No

Text #4
ID : 10
Format : UTF-8
Codec ID : S_TEXT/UTF8
Codec ID/Info : UTF-8 Plain Text
Duration : 22 min 30 s
Bit rate : 43 b/s
Count of elements : 234
Stream size : 7.09 KiB (0%)
Title : European Spanish
Language : Spanish
Default : No
Forced : No

Text #5
ID : 11
Format : UTF-8
Codec ID : S_TEXT/UTF8
Codec ID/Info : UTF-8 Plain Text
Duration : 22 min 30 s
Bit rate : 45 b/s
Count of elements : 234
Stream size : 7.44 KiB (0%)
Title : Spanish
Language : Spanish
Default : No
Forced : No

Text #6
ID : 12
Format : UTF-8
Codec ID : S_TEXT/UTF8
Codec ID/Info : UTF-8 Plain Text
Duration : 22 min 30 s
Bit rate : 47 b/s
Count of elements : 234
Stream size : 7.82 KiB (0%)
Title : French
Language : French
Default : No
Forced : No

Text #7
ID : 13
Format : UTF-8
Codec ID : S_TEXT/UTF8
Codec ID/Info : UTF-8 Plain Text
Duration : 22 min 30 s
Bit rate : 44 b/s
Count of elements : 234
Stream size : 7.32 KiB (0%)
Title : Italian
Language : Italian
Default : No
Forced : No

Text #8
ID : 14
Format : UTF-8
Codec ID : S_TEXT/UTF8
Codec ID/Info : UTF-8 Plain Text
Duration : 22 min 30 s
Bit rate : 48 b/s
Count of elements : 234
Stream size : 8.07 KiB (0%)
Title : German
Language : German
Default : No
Forced : No

Text #9
ID : 15
Format : UTF-8
Codec ID : S_TEXT/UTF8
Codec ID/Info : UTF-8 Plain Text
Duration : 22 min 30 s
Bit rate : 43 b/s
Count of elements : 234
Stream size : 7.20 KiB (0%)
Title : Polish
Language : Polish
Default : No
Forced : No

Text #10
ID : 16
Format : UTF-8
Codec ID : S_TEXT/UTF8
Codec ID/Info : UTF-8 Plain Text
Duration : 22 min 30 s
Bit rate : 45 b/s
Count of elements : 234
Stream size : 7.57 KiB (0%)
Title : Turkish
Language : Turkish
Default : No
Forced : No

Text #11
ID : 17
Format : UTF-8
Codec ID : S_TEXT/UTF8
Codec ID/Info : UTF-8 Plain Text
Duration : 22 min 30 s
Bit rate : 46 b/s
Count of elements : 234
Stream size : 7.61 KiB (0%)
Title : Brazilian Portuguese
Language : Portuguese
Default : No
Forced : No

Text #12
ID : 18
Format : UTF-8
Codec ID : S_TEXT/UTF8
Codec ID/Info : UTF-8 Plain Text
Duration : 22 min 32 s
Bit rate : 47 b/s
Count of elements : 220
Stream size : 7.90 KiB (0%)
Title : Japanese
Language : Japanese
Default : No
Forced : No

Text #13
ID : 19
Format : UTF-8
Codec ID : S_TEXT/UTF8
Codec ID/Info : UTF-8 Plain Text
Duration : 22 min 30 s
Bit rate : 72 b/s
Count of elements : 234
Stream size : 12.0 KiB (0%)
Title : Arabic
Language : Arabic
Default : No
Forced : No

Text #14
ID : 20
Format : UTF-8
Codec ID : S_TEXT/UTF8
Codec ID/Info : UTF-8 Plain Text
Duration : 22 min 30 s
Bit rate : 43 b/s
Count of elements : 234
Stream size : 7.18 KiB (0%)
Title : Danish
Language : Danish
Default : No
Forced : No

Text #15
ID : 21
Format : UTF-8
Codec ID : S_TEXT/UTF8
Codec ID/Info : UTF-8 Plain Text
Duration : 22 min 30 s
Bit rate : 40 b/s
Count of elements : 195
Stream size : 6.70 KiB (0%)
Title : Finnish
Language : Finnish
Default : No
Forced : No

Text #16
ID : 22
Format : UTF-8
Codec ID : S_TEXT/UTF8
Codec ID/Info : UTF-8 Plain Text
Duration : 21 min 13 s
Bit rate : 72 b/s
Count of elements : 230
Stream size : 11.2 KiB (0%)
Title : Hebrew
Language : Hebrew
Default : No
Forced : No

Text #17
ID : 23
Format : UTF-8
Codec ID : S_TEXT/UTF8
Codec ID/Info : UTF-8 Plain Text
Duration : 22 min 30 s
Bit rate : 59 b/s
Count of elements : 236
Stream size : 9.83 KiB (0%)
Title : Korean
Language : Korean
Default : No
Forced : No

Text #18
ID : 24
Format : UTF-8
Codec ID : S_TEXT/UTF8
Codec ID/Info : UTF-8 Plain Text
Duration : 22 min 30 s
Bit rate : 43 b/s
Count of elements : 217
Stream size : 7.23 KiB (0%)
Title : Dutch
Language : Dutch
Default : No
Forced : No

Text #19
ID : 25
Format : UTF-8
Codec ID : S_TEXT/UTF8
Codec ID/Info : UTF-8 Plain Text
Duration : 22 min 30 s
Bit rate : 40 b/s
Count of elements : 195
Stream size : 6.75 KiB (0%)
Title : Norwegian
Language : Norwegian Bokmal
Default : No
Forced : No

Text #20
ID : 26
Format : UTF-8
Codec ID : S_TEXT/UTF8
Codec ID/Info : UTF-8 Plain Text
Duration : 22 min 30 s
Bit rate : 44 b/s
Count of elements : 234
Stream size : 7.39 KiB (0%)
Title : Portuguese
Language : Portuguese
Default : No
Forced : No

Text #21
ID : 27
Format : UTF-8
Codec ID : S_TEXT/UTF8
Codec ID/Info : UTF-8 Plain Text
Duration : 21 min 11 s
Bit rate : 54 b/s
Count of elements : 222
Stream size : 8.52 KiB (0%)
Title : Romanian
Language : Romanian
Default : No
Forced : No

Text #22
ID : 28
Format : UTF-8
Codec ID : S_TEXT/UTF8
Codec ID/Info : UTF-8 Plain Text
Duration : 22 min 30 s
Bit rate : 44 b/s
Count of elements : 227
Stream size : 7.42 KiB (0%)
Title : Swedish
Language : Swedish
Default : No
Forced : No

Text #23
ID : 29
Format : UTF-8
Codec ID : S_TEXT/UTF8
Codec ID/Info : UTF-8 Plain Text
Duration : 22 min 30 s
Bit rate : 115 b/s
Count of elements : 234
Stream size : 19.1 KiB (0%)
Title : Thai
Language : Thai
Default : No
Forced : No

Text #24
ID : 30
Format : UTF-8
Codec ID : S_TEXT/UTF8
Codec ID/Info : UTF-8 Plain Text
Duration : 22 min 30 s
Bit rate : 48 b/s
Count of elements : 234
Stream size : 7.92 KiB (0%)
Title : Simplified Chinese
Language : Chinese
Default : No
Forced : No

Text #25
ID : 31
Format : UTF-8
Codec ID : S_TEXT/UTF8
Codec ID/Info : UTF-8 Plain Text
Duration : 22 min 30 s
Bit rate : 47 b/s
Count of elements : 234
Stream size : 7.91 KiB (0%)
Title : Traditional Chinese
Language : Chinese
Default : No
Forced : No

Text #26
ID : 32
Format : ASS
Codec ID : S_TEXT/ASS
Codec ID/Info : Advanced Sub Station Alpha
Duration : 21 min 34 s
Bit rate : 113 b/s
Count of elements : 263
Compression mode : Lossless
Stream size : 18.0 KiB (0%)
Title : Risens Team
Language : Russian
Default : No
Forced : No

Скриншоты
Castlevania.2017.S01.1080p.WEB-DL.H.264-RUS-JAP-ENG-Multi10.torrent
 СЕРЕБРЯНАЯ РАЗДАЧА! СКАЧАННОЕ ЗАСЧИТЫВАЕТСЯ ТОЛЬКО НАПОЛОВИНУ! 
Вечный
Трекер: Зарегистрирован

magnet ссылка

 


Скачать .torrent

33 KB

Статус: проверено (by Арт33 в 15-Июл-17 18:06)
Зарегистрирован: 08-Июл-17 17:32
Скачан: 1414 раз
Размер: 6 GB | 
Поблагодарили:
Скачать Кастлвания / Castlevania [TV-1 ] [4 из 4] [Без хардсаба] [RUS, JAP, ENG, multi10] [2017 г., ужасы, фэнтези, боевик, приключения, WEB-DL] [1080p] торрент
 


Похожие раздачи

MoscowGolem

post 08-Июл-17 00:31 (спустя 39 минут)

когда появится японская дорожка обновлю на jap + rus sub (если появится хрен его знает этот нетфликс), а латинский даб что французский что английский - неторт)

GutsTheBerserk

post 08-Июл-17 00:40 (спустя 8 минут)

MoscowGolem
А с английской дорожкой нету? wasntme

MoscowGolem

post 08-Июл-17 01:13 (спустя 32 минуты)

GutsTheBerserk

чуть позже появилась дорожка английская в 5.1 ( минут наверное через 20) но я уже к тому времени удалил "джойказино" из саншайна сделал ретайминг и настроил скрипт на файлы с французской дорогой на склейку, афтофлаги и тд) лень было править на английскую, хотелось быстрее глянуть после работы) да и английская французская - все одна фигня, ВОТ японская выйдет, я переделаю, добавлю сабы чтобы "все как у людей" было, возможно даже вставлю и английскую и озвучку от лоста ( к моменту появления японской дороги думаю появятся и озвучки с более высоким качеством звука чем саншайн 2.0 )

Velldanas

post 08-Июл-17 01:22 (спустя 9 минут)

Ого, уже вышел! Благодарю!

Doctor_Trypodel

post 08-Июл-17 02:13 (спустя 51 минута)

Перевод не плох

FEAR_666

post 08-Июл-17 11:24 (спустя 9 часов)

Зачем японскую дорогу на американскую поделку ставить?

MoscowGolem

post 08-Июл-17 19:46 (спустя 8 часов)

Обновил раздачу добавил языков и русские субтитры

ruslan3498943

post 09-Июл-17 01:42 (спустя 5 часов)

трэш

Alpha_sk

post 09-Июл-17 10:02 (спустя 8 часов)

ооо сяпик

Puza

post 09-Июл-17 19:11 (спустя 9 часов)

Больше эпизодов не будет?

MoscowGolem

post 10-Июл-17 12:00 (спустя 16 часов)

Puza
2й сезон объявлен на 8 серий. без даты выхода пока

Malganus666

post 12-Июл-17 22:15 (спустя 2 дня 10 часов)

Спасибо за релиз.
Адаптация весьма не плоха получилась, хоть и немного сумбурна...
Но не смотря ни на что, смотреть можно смело

Арт33

post 13-Июл-17 08:45 (спустя 10 часов)

Скриншоты в тег [thumb][/thumb]

post 13-Июл-17 08:46 (спустя 59 секунд)

Топик был перенесен из форума HDTVRip / HDTV 720 / 1080 в форум Новинки


Арт33
 

Byacca

post 07-Сен-17 13:14 (спустя 1 месяц 25 дней)

Что это за неуместная болтовня про японскую озвучку? Это не аниме, оригинальная дорожка здесь английская (США). Или вы South Park тоже с японской озвучкой смотрите?

post 07-Авг-18 13:54 (спустя 11 месяцев)

Топик был перенесен из форума Новинки в форум HDTVRip / HDTV 720 / 1080


Snowden
 

Seyho

post 30-Окт-18 16:00 (спустя 1 год 1 месяц)

Второй сезон в 1080 от Sunshine будет?

Текущее время: 17-Ноя 15:57

Часовой пояс: GMT + 3



Вы не можете начинать темы
Вы не можете отвечать на сообщения
Вы не можете редактировать свои сообщения
Вы не можете удалять свои сообщения
Вы не можете голосовать в опросах
Вы не можете прикреплять файлы к сообщениям
Вы не можете скачивать файлы