Loading...
Error
 

Скачать торрент Боруто: Следующее поколение Наруто / Boruto: Naruto Next Generations (Абэ Нориюки) [01-24 их XX][Без хардсаба][RUS] [2017г., Приключения, Боевые Искусства, Сёнэн, HDTV 720p] [RainDeath]

 
Автор Сообщение

Kiskisi

post 18-Авг-17 16:25

pic
pic
Информация о фильме
Название: Боруто: Следующее поколение Наруто
Оригинальное название: Boruto: Naruto Next Generations
Год выхода: 2017
Жанр: Приключения, комедия, боевые искусства, сёнэн
Режиссер: Абэ Нориюки
О фильме:
Всем полюбился неуклюжий Наруто Удзумаки, внутри которого спрятали силу Девятихвостого лиса. На пути к совершенству в искусстве ниндзя он не останавливался ни перед чем. Но в этом аниме речь идет не о нём, а о его сыне Боруто, который унаследовал множество качеств отца (например, чувство юмора и упрямость). Мечта Борута, как и Наруто, стать первоклассным ниндзя. Но если Наруто был изгоем, то Боруто пытается доказать отцу свою значимость. Действие сериала идёт уже в современном мире, с новыми технологиями, которые хоть и меняют, но не существенно, уклад деревни скрытой в листве. Иерархию и традиции поменять невозможно. Шиноби деревни всё также выполняют задания за деньги.
Отец Боруто все-таки исполнил свою мечту и стал Хокакэ и на этом его история заканчивается. Начинается путь нового поколения. Посмотрим, насколько оно достойно предыдущего.
Страна: pic Япония
Продолжительность: ~ 00:24:00
Перевод: Любительский Одноголосый закадровый [RainDeath]
Субтитры: нет
Файл
Качество: HDTV 720p
Формат: MKV
Видео кодек: AVC
Аудио кодек: MP3
Видео: MPEG4 Video (H264) 1280x720 23.81fps [V: h264 high L4.0, yuv420p, 1280x720]
Аудио: MP3 44100Hz stereo 128kbps [A: mp3, 44100 Hz, stereo, 128 kb/s
MI
General
Unique ID : 193595896658530379056153941845483196194 (0x91A536A48FDBCD74B3973C39CED80F22)
Complete name : D:\Boruto - RainDeath\Boruto - 20 RainDeath.mkv
Format : Matroska
Format version : Version 2
File size : 326 MiB
Duration : 23 min 54 s
Overall bit rate : 1 904 kb/s
Encoded date : UTC 2017-08-16 13:18:53
Writing application : mkvmerge v2.9.8 ('C'est le bon') built on Aug 13 2009 12:49:06
Writing library : libebml v0.7.7 + libmatroska v0.8.1
Attachments : OpenSans-Semibold.ttf

Video
ID : 1
Format : AVC
Format/Info : Advanced Video Codec
Format profile : [email protected]
Format settings, CABAC : Yes
Format settings, ReFrames : 6 frames
Codec ID : V_MPEG4/ISO/AVC
Duration : 23 min 54 s
Bit rate : 1 776 kb/s
Width : 1 280 pixels
Height : 720 pixels
Display aspect ratio : 16:9
Frame rate mode : Constant
Frame rate : 23.810 FPS
Original frame rate : 23.976 (23976/1000) FPS
Color space : YUV
Chroma subsampling : 4:2:0
Bit depth : 8 bits
Scan type : Progressive
Bits/(Pixel*Frame) : 0.081
Stream size : 297 MiB (91%)
Writing library : x264 core 120 r2120 0c7dab9
Encoding settings : cabac=1 / ref=6 / deblock=1:1:1 / analyse=0x3:0x113 / me=umh / subme=8 / psy=1 / psy_rd=0.40:0.00 / mixed_ref=1 / me_range=16 / chroma_me=1 / trellis=1 / 8x8dct=1 / cqm=0 / deadzone=21,11 / fast_pskip=1 / chroma_qp_offset=-2 / threads=4 / sliced_threads=0 / nr=0 / decimate=1 / interlaced=0 / bluray_compat=0 / constrained_intra=0 / bframes=3 / b_pyramid=2 / b_adapt=2 / b_bias=0 / direct=3 / weightb=1 / open_gop=0 / weightp=2 / keyint=250 / keyint_min=23 / scenecut=40 / intra_refresh=0 / rc_lookahead=50 / rc=2pass / mbtree=1 / bitrate=1776 / ratetol=1.0 / qcomp=0.60 / qpmin=0 / qpmax=69 / qpstep=4 / cplxblur=20.0 / qblur=0.5 / vbv_maxrate=3552 / vbv_bufsize=8880 / nal_hrd=none / ip_ratio=1.40 / aq=1:0.60
Default : No
Forced : No

Audio
ID : 2
Format : MPEG Audio
Format version : Version 1
Format profile : Layer 3
Mode : Joint stereo
Mode extension : MS Stereo
Codec ID : A_MPEG/L3
Codec ID/Hint : MP3
Duration : 23 min 54 s
Bit rate mode : Constant
Bit rate : 128 kb/s
Channel(s) : 2 channels
Sampling rate : 44.1 kHz
Compression mode : Lossy
Stream size : 21.9 MiB (7%)
Default : Yes
Forced : No
Скриншоты
Boruto_-_RainDeath.torrent
 СЕРЕБРЯНАЯ РАЗДАЧА! СКАЧАННОЕ ЗАСЧИТЫВАЕТСЯ ТОЛЬКО НАПОЛОВИНУ! 
Вечный
Трекер: Зарегистрирован

magnet ссылка

 


Скачать .torrent

41 KB

Статус: проверено (by Snowden в 15-Сен-17 16:44)
Зарегистрирован: 15-Сен-17 15:35
Скачан: 28 раз
Размер: 7.75 GB | 
Поблагодарили:
Скачать Боруто: Следующее поколение Наруто / Boruto: Naruto Next Generations (Абэ Нориюки) [01-24 их XX][Без хардсаба][RUS] [2017г., Приключения, Боевые Искусства, Сёнэн, HDTV 720p] [RainDeath] торрент
 


Похожие раздачи

Snowden

post 19-Авг-17 02:13 (спустя 9 часов)

 !  Продолжительность: ~ 00:24:00
Скриншоты в тег [thumb][/thumb] и в спойлер!
Качество: HDTV 720p
Пункт субтитры добавьте!
Шапку оформить по шаблону:
"Название на русском / Название на оригинале (режиссер) [кол-во эпизодов "01-12 из 12"][информация о субтитрах и переводе][год, жанр, качество]"

Kiskisi

post 19-Авг-17 07:55 (спустя 5 часов)

Snowden

Popravil

Snowden

post 19-Авг-17 08:58 (спустя 1 час 2 минуты)

Kiskisi
В упор не наблюдаю!

Kiskisi

post 15-Сен-17 15:36 (спустя 27 дней)

Обновлено до 24 серии!

post 21-Ноя-18 12:09 (спустя 1 год 2 месяца)

Топик был перенесен из форума Новинки в форум HDTVRip / HDTV 720 / 1080


Snowden
 

Текущее время: 23-Июл 14:58

Часовой пояс: GMT + 3



Вы не можете начинать темы
Вы не можете отвечать на сообщения
Вы не можете редактировать свои сообщения
Вы не можете удалять свои сообщения
Вы не можете голосовать в опросах
Вы не можете прикреплять файлы к сообщениям
Вы не можете скачивать файлы