Loading...
Error
 

Скачать торрент Собибор (Константин Хабенский) [2018 г., Военный, драма, WEB-DLRip-AVC][iTunes][от R.G. RustorRipper's]

 
Автор Сообщение

and77200

post 01-Июн-18 22:10

pic
pic
Собибор
«Подвиг, который мы забыли»

Год выпуска: 2018
Страна: Россияpic
Жанр: военный, драма
Продолжительность: 01:57:05
Перевод: Не требуется [iTunes]
Субтитры: Нет

Режиссёр
pic
В ролях: Константин Хабенский (Александр Печерский), Кристофер Ламберт (Карл Френцель), Фелисе Янкелль (Люка), Дайнюс Казлаускас (Лео), Сергей Годин (Аркадий Вайспапир), Роман Агеев (Борис Цыбульский), Гела Месхи (Семен Розенфельд), Михалина Ольшанска (Ханна), Мария Кожевникова (Сельма), Вольфганг Черны (Густав Вагнер), Филипп Рейнхардт (Зигфрид), Дирк Мартенс (Бэкмен)
pic pic pic pic pic pic pic pic pic pic pic pic
Роли дублировали: Оливер Штрицель (Карл Френцель), Полина Агуреева (Люка)
Описание: История сопротивления человеческого духа бездушной машине уничтожения. В октябре 1943 года заключённые лагеря Собибор во главе с лейтенантом Красной Армии Александром Печерским поднимают восстание - единственное успешное восстание в нацистском лагере смерти.

Качество: WEB-DLRip-AVC
Контейнер: MKV
Видео кодек: MPEG-4 AVC
Аудио кодек: AC3

Видео: AVC, 1040x436 (2.40:1), 2800 kbps, 24 fps, 0,257 bpp
Аудио: picРусский / AC3 / 5.1 / 48.0 KHz / 384 kbps / 16 bit

Рип: pic Группа: pic pic pic


Media Info
General
Unique ID : 223986712536012436893342306167578145820 (0xA882458CF02DB0BFB02564F2AF3FB41C)
Complete name : E:\Sobibor.2018.WEB-DLRip-AVC.and77200.mkv
Format : Matroska
Format version : Version 4 / Version 2
File size : 2.60 GiB
Duration : 1h 57mn
Overall bit rate : 3 184 Kbps
Movie name : Собибор.2018 - and77200
Encoded date : UTC 2018-06-01 17:39:21
Writing application : mkvmerge v20.0.0 ('I Am The Sun') 64-bit
Writing library : libebml v1.3.5 + libmatroska v1.4.8

Video
ID : 1
Format : AVC
Format/Info : Advanced Video Codec
Format profile : [email protected]
Format settings, CABAC : Yes
Format settings, ReFrames : 9 frames
Codec ID : V_MPEG4/ISO/AVC
Duration : 1h 57mn
Bit rate : 2 800 Kbps
Width : 1 040 pixels
Height : 436 pixels
Display aspect ratio : 2.40:1
Frame rate : 24.000 fps
Color space : YUV
Chroma subsampling : 4:2:0
Bit depth : 8 bits
Scan type : Progressive
Bits/(Pixel*Frame) : 0.257
Stream size : 2.24 GiB (86%)
Writing library : x264 core 155 r2901M 7d0ff22
Encoding settings : cabac=1 / ref=9 / deblock=1:-1:-1 / analyse=0x3:0x133 / me=umh / subme=11 / psy=1 / psy_rd=1.05:0.15 / mixed_ref=1 / me_range=32 / chroma_me=1 / trellis=2 / 8x8dct=1 / cqm=0 / deadzone=21,11 / fast_pskip=0 / chroma_qp_offset=-3 / threads=2 / lookahead_threads=1 / sliced_threads=0 / nr=0 / decimate=1 / interlaced=0 / bluray_compat=0 / constrained_intra=0 / bframes=6 / b_pyramid=2 / b_adapt=2 / b_bias=0 / direct=3 / weightb=1 / open_gop=0 / weightp=2 / keyint=240 / keyint_min=24 / scenecut=40 / intra_refresh=0 / rc_lookahead=60 / rc=2pass / mbtree=1 / bitrate=2800 / ratetol=1.0 / qcomp=0.70 / qpmin=3 / qpmax=69 / qpstep=9 / cplxblur=20.0 / qblur=0.5 / ip_ratio=1.40 / aq=2:1.00
Language : English
Default : Yes
Forced : No
DURATION : 01:57:05.000000000
NUMBER_OF_FRAMES : 168600
NUMBER_OF_BYTES : 2457155584
_STATISTICS_WRITING_APP : mkvmerge v20.0.0 ('I Am The Sun') 64-bit
_STATISTICS_WRITING_DATE_UTC : 2018-06-01 17:39:21
_STATISTICS_TAGS : BPS DURATION NUMBER_OF_FRAMES NUMBER_OF_BYTES
Color primaries : BT.709-5, BT.1361, IEC 61966-2-4, SMPTE RP177
Transfer characteristics : BT.709-5, BT.1361
Matrix coefficients : BT.709-5, BT.1361, IEC 61966-2-4 709, SMPTE RP177

Audio
ID : 2
Format : AC-3
Format/Info : Audio Coding 3
Mode extension : CM (complete main)
Codec ID : A_AC3
Duration : 1h 57mn
Bit rate mode : Constant
Bit rate : 384 Kbps
Channel(s) : 6 channels
Channel positions : Front: L C R, Side: L R, LFE
Sampling rate : 48.0 KHz
Bit depth : 16 bits
Compression mode : Lossy
Stream size : 322 MiB (12%)
Language : Russian
Default : Yes
Forced : No
DURATION : 01:57:05.056000000
NUMBER_OF_FRAMES : 219533
NUMBER_OF_BYTES : 337202688
_STATISTICS_WRITING_APP : mkvmerge v20.0.0 ('I Am The Sun') 64-bit
_STATISTICS_WRITING_DATE_UTC : 2018-06-01 17:39:21
_STATISTICS_TAGS : BPS DURATION NUMBER_OF_FRAMES NUMBER_OF_BYTES
pic
pic
Оформление by and77200
Sobibor.2018.WEB-DLRip-AVC.and77200.mkv.torrent
Трекер: Зарегистрирован

magnet ссылка

 


Скачать .torrent

52 KB

Статус: проверено (by Cherepah в 01-Июн-18 22:15)
Зарегистрирован: 01-Июн-18 22:10
Скачан: 1388 раз
Размер: 2.6 GB | 
Поблагодарили:
Скачать Собибор (Константин Хабенский) [2018 г., Военный, драма, WEB-DLRip-AVC][iTunes][от R.G. RustorRipper's] торрент
 


Похожие раздачи

post 05-Окт-18 14:24 (спустя 4 месяца 3 дня)

Топик был перенесен из форума WEB-DL / WEB-DLRip в форум Фильмы


Snowden
 

Hex

post 26-Окт-18 18:04 (спустя 4 месяца 24 дня)

Хоть одно кино сняли бы не про страдания жидов,а подвиг Русского Народа,безумным количеством жизней заплатившим за ныне здравствующих обрезанных потомков ювелиров,пожирающих мою страну,проводящих геноцид своего спасителя.Тьфу!Хабенский,как оказалось,тоже пархатый,[censure]...

Текущее время: 15-Ноя 14:00

Часовой пояс: GMT + 3



Вы не можете начинать темы
Вы не можете отвечать на сообщения
Вы не можете редактировать свои сообщения
Вы не можете удалять свои сообщения
Вы не можете голосовать в опросах
Вы не можете прикреплять файлы к сообщениям
Вы не можете скачивать файлы