Loading...
Error
 

Скачать торрент Диверсант / Диверсант 2. Конец Войны (01-14) из 14] (Андрей Малюков, Игорь Зайцев) [2004 - 2007, Боевик, военный, экранизация, ВОВ, HDTV, 1080i]

 
Автор Сообщение

Suentebueck

post 04-Июл-18 13:15

pic
Диверсант / Диверсант 2. Конец Войны


Год выпуска: 2004 - 2007
Страна: Россия
Жанр: Боевик, военный, экранизация, ВОВ
Продолжительность: 14 x ~ 00:51:00
Перевод: Не требуется
Субтитры: Нет

Режиссер: Андрей Малюков, Игорь Зайцев

В ролях: Владислав Галкин, Алексей Бардуков, Кирилл Плетнёв, Владимир Меньшов, Александр Лыков, Михаил Ефремов, Юрий Кузнецов, Олег Табаков, Игорь Бочкин, Вячеслав Разбегаев, Александр Половцев, Василий Бочкарёв, Анна Снаткина, Алексей Гуськов, Игорь Скляр, Юлия Рутберг, Владимир Зайцев, Сабина Ахмедова, Ксения Кузнецова, Андрей Краско, Вилле Хаапасало, Рената Литвинова, Марина Яковлева, Андрей Зибров, Юрий Цурило, Наталья Иванова-Фенкина, Виктор Косых, Алексей Солончев, Валерий Баринов, Валерий Иваков, Андрей Смоляков, Игорь Лифанов, Игорь Ливанов, Андрей Толубеев, Екатерина Редникова, Владимир Богданов, Игорь Кваша, Виктор Вержбицкий

О фильме: Действие происходит в 1942 году. Молодые ребята, выпускники разведшколы, разрабатывают и выполняют сверхсложные операции в тылу врага. Тема, поднятая в фильме, получила совершенно новое и неоднозначное развитие и вышла на принципиально иной художественный уровень благодаря напряженному движению сюжета и безукоризненной реализации стилистической задачи. Помимо художественного, проект "Диверсант" имеет большое общественно-политическое значение.

Качество видео: HDTV (1080i)
Формат: TS
Видео кодек : AVC
Аудио кодек: : AC3, MP2
Видео: MPEG-TS AVC, ~ 10.2 Мбит/с, 1920x1080, 25 кадр/с
Аудио 1: AC3, 6 ch, 384 Кбит/с, 48,0 КГц - Русский
Аудио 2: MP2, 2 ch, 192 Кбит/с, 48,0 КГц - Русский
Рейтинг
pic
MediaInfo
Общее
Идентификатор : 1 (0x1)
Полное имя : D:\Я\Фильмы\Diversant.1-2.2004-2007.HDTV(1080i).GeneralFilm\Diversant.1.(01.seriya).HDTV(1080i).GeneralFilm.ts
Формат : MPEG-TS
Размер файла : 4,06 Гбайт
Продолжительность : 51 м. 19 с.
Режим общего битрейта : Переменный
Общий поток : 11,3 Мбит/сек

Видео
Идентификатор : 1603 (0x643)
Идентификатор меню : 80 (0x50)
Формат : AVC
Формат/Информация : Advanced Video Codec
Профиль формата : [email protected]
Настройки формата : CABAC / 3 Ref Frames
Параметр CABAC формата : Да
Параметр RefFrames формата : 3 кадра
Параметр GOP формата : M=4, N=32
Идентификатор кодека : 27
Продолжительность : 51 м. 19 с.
Битрейт : 10,2 Мбит/сек
Ширина : 1920 пикселей
Высота : 1080 пикселей
Соотношение сторон : 16:9
Частота кадров : 25,000 кадров/сек
Стандарт вещания : Component
Цветовое пространство : YUV
Субдискретизация насыщенности : 4:2:0
Битовая глубина : 8 бит
Тип развёртки : Чересстрочная
Метод сохранения типа развёртки : Раздельные поля
Порядок развёртки : Верхнее поле первое
Бит/(Пиксели*Кадры) : 0.197
Размер потока : 3,65 Гбайт (90%)
Цветовой диапазон : Limited
Основные цвета : BT.709
Характеристики трансфера : BT.709
Коэффициенты матрицы : BT.709

Аудио #1
Идентификатор : 2603 (0xA2B)
Идентификатор меню : 80 (0x50)
Формат : AC-3
Формат/Информация : Audio Coding 3
Идентификатор кодека : 6
Продолжительность : 51 м. 19 с.
Вид битрейта : Постоянный
Битрейт : 384 Кбит/сек
Каналы : 6 каналов
Расположение каналов : Front: L C R, Side: L R, LFE
Частота : 48,0 КГц
Частота кадров : 31,250 кадров/сек (1536 SPF)
Битовая глубина : 16 бит
Метод сжатия : С потерями
Размер потока : 141 Мбайт (3%)
Язык : Russian
ServiceKind/String : Complete Main

Аудио #2
Идентификатор : 2604 (0xA2C)
Идентификатор меню : 80 (0x50)
Формат : MPEG Audio
Версия формата : Version 1
Профиль формата : Layer 2
Идентификатор кодека : 3
Продолжительность : 51 м. 19 с.
Вид битрейта : Постоянный
Битрейт : 192 Кбит/сек
Каналы : 2 канала
Частота : 48,0 КГц
Частота кадров : 41,667 кадра/сек (1152 SPF)
Метод сжатия : С потерями
Размер потока : 70,5 Мбайт (2%)
Язык : Russian
Скриншоты
Diversant.1-2.2004-2007.HDTV(1080i).GeneralFilm.torrent
 ЗОЛОТАЯ РАЗДАЧА! СКАЧАННОЕ НЕ ЗАСЧИТЫВАЕТСЯ! 
Вечный
Трекер: Зарегистрирован

magnet ссылка

 


Скачать .torrent

102 KB

Статус: проверено (by Snowden в 04-Июл-18 16:49)
Зарегистрирован: 04-Июл-18 13:15
Скачан: 38 раз
Размер: 40.34 GB | 
Поблагодарили:
Скачать Диверсант / Диверсант 2. Конец Войны (01-14) из 14] (Андрей Малюков, Игорь Зайцев) [2004 - 2007, Боевик, военный, экранизация, ВОВ, HDTV, 1080i] торрент
 


Похожие раздачи

post 04-Июл-18 13:48 (спустя 32 минуты)

Топик был перенесен из форума WEB DL / HD / BDRip 1080 в форум Сериалы


Snowden
 

Snowden

post 04-Июл-18 16:33 (спустя 3 часа)

Продолжительность: 14 x ~ 00:51:00
Формат: TS
Аудио кодек: AC3, MP2
Видео: MPEG-TS AVC, ~ 10.2 Мбит/с, 1920x1080 (Добавить частоту кадров "fps")
Ц Цитата:

Аудио: Русский (AC3, 2 ch, 384 Кбит/с, MP2, 2 ch, 192 Кбит/с)
Расписать каждую дорожку отдельно, в них должно быть прописано: Битрейт, скольки канальный звук, частота аудио "KHz". В конце указать какой язык каждой аудио дорожки, а в начале? если разный аудио кодек, указать какая дорожка AC3, а какая MP2!
Скриншоты не соответствуют тех. данным!
Режиссер: Андрей Малюков, Игорь Зайцев (В шапке анологично)

добавлено спустя 2 часа 44 минуты:

Аудио 1: AC3, 6 ch, 384 Кбит/с, 48,0 КГц - Русский
Мне обо всех косяках надо упоминать?!

Игорь = by

post 04-Июл-18 17:40 (спустя 1 час 7 минут)

Скриншоты, как-то SAT-rip напоминают. Но сериал мировой - в таком качестве, заберу. Спс.

Текущее время: 17-Ноя 16:08

Часовой пояс: GMT + 3



Вы не можете начинать темы
Вы не можете отвечать на сообщения
Вы не можете редактировать свои сообщения
Вы не можете удалять свои сообщения
Вы не можете голосовать в опросах
Вы не можете прикреплять файлы к сообщениям
Вы не можете скачивать файлы