Loading...
Error
 

Скачать торрент Острые козырьки / Заточенные кепки / Peaky Blinders ( Сезон 1-4 / Серии 1-24 из 24) (Колм МакКарти, Тим Милантс, Дэвид Кэффри) [2013-2017, драма, криминал, BDRemux 1080p] 3 MVO, 1 DVO (AlexFilm, LostFilm, Ozz-tv, Кубик в кубе)

 
Автор Сообщение

Suentebueck

post 05-Июл-18 22:30

Острые козырьки / Заточенные кепки / Peaky Blinders
Сезон 1-4
Серии 1-24 из 24

«The streets are theirs»

pic

Год выпуска: 2013 - 2017
Страна: Великобритания
Жанр: драма, криминал
Перевод: Профессиональный [многоголосый], Профессиональный двухголосый
Субтитры: русские, английские
Режиссер: Колм МакКарти, Тим Милантс, Дэвид Кэффри

В ролях: Киллиан Мёрфи (Thomas Shelby), Пол Андерсон (Arthur Shelby), Хелен МакКрори (Aunt Polly), Софи Рандл (Ada Shelby), Нед Деннехи (Charlie Strong), Джо Коул (John Shelby), Йен Пек (Curly), Финн Коул (Michael Gray), Гарри Киртон (Finn Shelby), Пакки Ли (Johnny Dogs), Наташа О’Кифф (Lizzie Stark), Тони Питтс (Sergeant Moss)
Описание:
Криминальная британская сага о становлении в Бирмингеме 20-х годов одной из опаснейших преступных группировок города «Острые козырьки». В основе гангстерской драмы лежит реальная история жестокой и влиятельной банды послевоенного времени.
События сериала разворачиваются в 20-х годах в Бирмингеме. Город приходит в себя после войны, улицы заполняют вчерашние солдаты и революционеры, криминал на подъеме. Особенно сильно влияние банды «Острые козырьки», ее босс – Томми Шелби (Киллиан Мёрфи) участник военных действий, имеющий несколько наград за хорошую службу. Помогают Томии два брата – Артур (Пол Андерсон) и Джон (Джо Коул).

Группировка занимается уличными грабежами, устраивает тотализаторы и получает дань с торговцев. Отличительный знак банды Шелби – это кепки с зашитыми в козырьки лезвиями. Члены преступной группировки стильно одеваются: носят шелковые шарфы и модные брюки-клеш. Это реальный факт, именно так выглядели участники банды, организованной ветераном Шелби, узнать историю которой вы сможете, посмотрев криминальный сериал «Острые козырьки» в озвучке LostFilm. Лезвие в козырьке нужно было бандитам для стремительного нападения – они быстро выхватывали острие и наносили жертве удар в лицо. Жестокость – это еще одна фирменная черта группировки Бирмингема, которая на протяжении нескольких лет устанавливала на улицах британского города свои порядки.
Но полиция не дремлет, за бандой наблюдает опытный инспектор Честер Кэмпбелл, страж порядка умен и расчетлив, он твердо намерен призвать членов группировки Шелби к ответственности. Гангстерская драма привлекает качественно прописанными образами главных героев, высокой динамикой, обилием острых сцен и наличием любовной линии. Чего стоит только фигура Томми Шелби – это безжалостный хладнокровный босс и заботливый семьянин, испытывающий страдания от воспоминаний о войне в одном лице
Британский сериал «Острые козырьки» предлагает зрителю правдивую версию событий 20-х годов о расцвете преступности через призму членов самой авторитетной группировки Бирмингема. Это эмоциональный и напряженный фильм, который заставляет о многом задуматься. Сценаристу Стивену Найту удалось очень ярко и образно передать историю серьезных мужчин, твердо избравшими скользкий преступный путь, живущих по своим правилам и заставляющих подчиняться им всех остальных
Рейтинг
pic
Качество: BDRemux 1080p
Формат: MKV
Видео кодек: AVC
Аудио кодек: AC3, DTS-HD
Сезон 1
Год выпуска: 2013
Продолжительность: 00:56:59
Кол-во серий/сезонов: 1 сезон: серии 1- 6 из 6
Видео: AVC, 1920x1080 (16:9), 15.6 Mb/s, 25 fps, 0,301 bpp
Аудио №1: русский / AC3 / 2.0 / 48 kHz / 448 kbps / |AlexFilm|
Аудио №2: русский / AC3 / 2.0 / 48 kHz / 448 kbps / |Кубик в кубе|
Аудио №3: русский / AC3 / 2.0 / 48 kHz / 448 kbps / |LostFilm|
Аудио №4: русский / AC3 / 2.0 / 48 kHz / 448 kbps / |Ozz-tv|
Аудио №5: английский / DTS-HD / 2.0 / 48 kHz / 1602 kbps / 16 bit (Core: 2.0 / 48 kHz / 1509 kbps / 16 bit)
Субтитры: русские, английские
Список серий
1 серия
1919-й год, Великобритания. Только что закончилась Первая мировая война. Многие ветераны – без работы, разочарованы жизнью, страдают от посттравматического синдрома. В народе царят прокоммунистические настроения: периодически бастуют шахтеры и рабочие заводов. Скоро начнется война за независимость Ирландии, и движение ИРА весьма активно. В городе Бирмингеме рабочие кварталы вокруг завода контролирует семейная банда Шелби, членов которой прозвали «Острыми козырьками» из-за оригинального способа использовать в качестве скрытого оружия кепки, в козырьки которых вшиты бритвенные лезвия. Шелби – рэкетиры и подпольные букмекеры. Глава банды и ее «мозг» – ветеран Томас Шелби — вместе с братьями по ошибке крадет с заводского склада партию экспортного оружия, что превращает банальную кражу в преступление политического масштаба. Для расследования инцидента Уинстон Черчилль направляет в Бирмингем сурового и безжалостного инспектора Кэмпбелла, который готовит карательную операцию.

2 серия
На ярмарке происходит стычка «Острых козырьков» с цыганской бандой Ли, которую Томас Шелби надеется использовать, чтобы подобраться к крупному воротиле букмекерского бизнеса – Билли Кимберу. Эйда Шелби, которая тайно встречается с однополчанином своего брата – Фредди Торном, профсоюзным лидером и коммунистом — оказывается в трудном положении. Барменше Грейс, шпионке инспектора Кэмпбелла, удается очаровать лидера «Козырьков», и он начинает за ней ухаживать. Несмотря на уговоры тети Полли избавиться от оружия, Томас решает поступить по-своему: встречается с Кэмпбеллом и предлагает ему сделку...

3 серия
Прослышав о похищенном оружии, члены ИРА предлагают Томасу Шелби его купить. Однако тот не намерен выпускать из рук свой главный козырь против Кэмпбелла. Один из агентов ИРА убит, и подозрение падает на «Острых козырьков». Грейс едет с Томасом на скачки, где невольно участвует в его хитрой операции, в результате которой Билли Кимбер, убежденный в том, что цыгане Ли пытались его ограбить, нанимает банду Шелби в качестве своей охраны. Кимбер силой пытается заполучить себе красавицу-Грейс. Сможет ли Томас Шелби ее защитить?

4 серия
Молодожены Фредди Торн и Эйда Шелби вынуждены скрываться от гнева Томаса, не дававшего согласия на брак. Фредди, которого также разыскивает Кэмпбелл, не собирается бежать из страны, как предлагали ему Шелби, а продолжает свою подпольную деятельность. После случая на скачках Томас Шелби берет Грейс в секретари. Чтобы заполучить бизнес Билли Кимбера, ему необходим сильный союзник, которого он обретает в лице бывшего врага. Глава «Козырьков» устраивает женитьбу своего младшего брата Джона и выманивает беременную Эйду на праздник.

5 серия
Потрясенная арестом мужа Эйда обвиняет Томми в предательстве и не хочет его видеть. Тетя Полли пытается помочь ей и помирить с братом. Тем временем в городе неожиданно объявляется отец семейства Шелби, авантюрист и мошенник, бросивший семью много лет назад. Томас не желает общаться с ним, но его старший брат Артур, увлеченный рассказами отца о жизни в Америке, по наивности решает ему помочь и отдает крупную сумму денег. Кузен застреленного Грейс члена ИРА пытается узнать подробности о его смерти у Шелби и угрожает им. Кэмпбелл делает Грейс предложение.

6 серия
Банде Шелби удается освободить Фредди Торна из тюрьмы, и Эйда с младенцем возвращается в семью. Чтобы защитить Томаса от Кэмпбелла, Грейс выдает тайник с оружием. Кэмпбелл получает благодарность от правительства, но, во избежание политического скандала, арестовать банду «Острых козырьков» он не может. Одолеваемый ревностью и жаждой мести, инспектор решает натравить Кимбера и его людей на Шелби в тот момент, когда те меньше всего этого ожидают. Кварталу «Козырьков» грозит кровавая бойня. Полли догадывается о том, что Грейс — полицейский агент, и вызывает ее на откровенный разговор.
МедиаИнфо
General
Unique ID : 248416506980920823818728760765466056045 (0xBAE3476919D9900835722D1EE1C0956D)
Complete name : D:\Я\Фильмы\Peaky.Blinders.S01-04\Season1\Peaky.Blinders.S01E01.1080.films.club.mkv
Format : Matroska
Format version : Version 4 / Version 2
File size : 7.54 GiB
Duration : 56 min
Overall bit rate mode : Variable
Overall bit rate : 19.0 Mb/s
Encoded date : UTC 2018-04-20 13:25:48
Writing application : mkvmerge v22.0.0 ('At The End Of The World') 64-bit
Writing library : libebml v1.3.5 + libmatroska v1.4.8

Video
ID : 1
Format : AVC
Format/Info : Advanced Video Codec
Format profile : [email protected]
Format settings, CABAC : Yes
Format settings, ReFrames : 3 frames
Codec ID : V_MPEG4/ISO/AVC
Duration : 56 min
Bit rate mode : Variable
Bit rate : 15.6 Mb/s
Maximum bit rate : 35.0 Mb/s
Width : 1 920 pixels
Height : 1 080 pixels
Display aspect ratio : 16:9
Frame rate mode : Constant
Frame rate : 25.000 FPS
Color space : YUV
Chroma subsampling : 4:2:0
Bit depth : 8 bits
Scan type : MBAFF
Scan type, store method : Interleaved fields
Scan order : Top Field First
Bits/(Pixel*Frame) : 0.301
Stream size : 6.17 GiB (82%)
Title : Peaky.Blinders
Writing library : x264 core 148
Encoding settings : cabac=1 / ref=3 / deblock=1:-1:-1 / analyse=0x3:0x112 / me=dia / subme=1 / psy=1 / psy_rd=1.00:0.00 / mixed_ref=0 / me_range=12 / chroma_me=1 / trellis=1 / 8x8dct=1 / cqm=0 / deadzone=21,11 / fast_pskip=0 / chroma_qp_offset=0 / threads=8 / lookahead_threads=4 / sliced_threads=0 / nr=0 / decimate=1 / interlaced=tff / bluray_compat=0 / constrained_intra=0 / bframes=4 / b_pyramid=0 / b_adapt=2 / b_bias=0 / direct=3 / weightb=1 / open_gop=0 / weightp=0 / keyint=1000 / keyint_min=2 / scenecut=40 / intra_refresh=0 / rc_lookahead=2 / rc=abr / mbtree=0 / bitrate=15578 / ratetol=1.0 / qcomp=0.50 / qpmin=0 / qpmax=69 / qpstep=4 / vbv_maxrate=35000 / vbv_bufsize=30000 / nal_hrd=vbr / filler=0 / ip_ratio=1.10 / pb_ratio=1.10 / aq=1:1.00
Default : Yes
Forced : No
Color range : Limited
Color primaries : BT.709
Transfer characteristics : BT.709
Matrix coefficients : BT.709

Audio #1
ID : 2
Format : AC-3
Format/Info : Audio Coding 3
Mode extension : CM (complete main)
Format settings, Endianness : Big
Codec ID : A_AC3
Duration : 56 min
Bit rate mode : Constant
Bit rate : 448 kb/s
Channel(s) : 2 channels
Channel positions : Front: L R
Sampling rate : 48.0 kHz
Frame rate : 31.250 FPS (1536 spf)
Compression mode : Lossy
Stream size : 183 MiB (2%)
Title : AlexFilm
Language : Russian
Default : Yes
Forced : No

Audio #2
ID : 3
Format : AC-3
Format/Info : Audio Coding 3
Mode extension : CM (complete main)
Format settings, Endianness : Big
Codec ID : A_AC3
Duration : 56 min
Bit rate mode : Constant
Bit rate : 448 kb/s
Channel(s) : 2 channels
Channel positions : Front: L R
Sampling rate : 48.0 kHz
Frame rate : 31.250 FPS (1536 spf)
Compression mode : Lossy
Stream size : 183 MiB (2%)
Title : Кубик в Кубе
Language : Russian
Default : No
Forced : No

Audio #3
ID : 4
Format : AC-3
Format/Info : Audio Coding 3
Mode extension : CM (complete main)
Format settings, Endianness : Big
Codec ID : A_AC3
Duration : 56 min
Bit rate mode : Constant
Bit rate : 448 kb/s
Channel(s) : 2 channels
Channel positions : Front: L R
Sampling rate : 48.0 kHz
Frame rate : 31.250 FPS (1536 spf)
Compression mode : Lossy
Stream size : 183 MiB (2%)
Title : LostFilm
Language : Russian
Default : No
Forced : No

Audio #4
ID : 5
Format : AC-3
Format/Info : Audio Coding 3
Mode extension : CM (complete main)
Format settings, Endianness : Big
Codec ID : A_AC3
Duration : 56 min
Bit rate mode : Constant
Bit rate : 448 kb/s
Channel(s) : 2 channels
Channel positions : Front: L R
Sampling rate : 48.0 kHz
Frame rate : 31.250 FPS (1536 spf)
Compression mode : Lossy
Stream size : 183 MiB (2%)
Title : Ozz-tv
Language : Russian
Default : No
Forced : No

Audio #5
ID : 6
Format : DTS
Format/Info : Digital Theater Systems
Format profile : MA / Core
Mode : 16
Format settings, Endianness : Big
Codec ID : A_DTS
Duration : 56 min
Bit rate mode : Variable / Constant
Bit rate : 1 603 kb/s / 1 509 kb/s
Channel(s) : 2 channels
Channel positions : Front: L R
Sampling rate : 48.0 kHz
Frame rate : 93.750 FPS (512 spf)
Bit depth : 16 bits
Compression mode : Lossless / Lossy
Stream size : 653 MiB (8%)
Title : Original
Language : English
Default : No
Forced : No

Text #1
ID : 7
Format : PGS
Muxing mode : zlib
Codec ID : S_HDMV/PGS
Codec ID/Info : Picture based subtitle format used on BDs/HD-DVDs
Duration : 9 min
Bit rate : 7 129 b/s
Count of elements : 22
Stream size : 491 KiB (0%)
Title : forced
Language : Russian
Default : No
Forced : No

Text #2
ID : 8
Format : PGS
Muxing mode : zlib
Codec ID : S_HDMV/PGS
Codec ID/Info : Picture based subtitle format used on BDs/HD-DVDs
Duration : 55 min
Bit rate : 43.7 kb/s
Count of elements : 1120
Stream size : 17.4 MiB (0%)
Title : В.Мерзляков
Language : Russian
Default : No
Forced : No

Text #3
ID : 9
Format : PGS
Muxing mode : zlib
Codec ID : S_HDMV/PGS
Codec ID/Info : Picture based subtitle format used on BDs/HD-DVDs
Duration : 56 min
Bit rate : 45.2 kb/s
Count of elements : 1100
Stream size : 18.3 MiB (0%)
Title : О.Галайда
Language : Russian
Default : No
Forced : No

Text #4
ID : 10
Format : PGS
Muxing mode : zlib
Codec ID : S_HDMV/PGS
Codec ID/Info : Picture based subtitle format used on BDs/HD-DVDs
Duration : 56 min
Bit rate : 33.9 kb/s
Count of elements : 1384
Stream size : 13.7 MiB (0%)
Title : Original
Language : English
Default : No
Forced : No
Скриншоты
Сезон 2
Год выпуска: 2014
Продолжительность: 00:58:55
Кол-во серий/сезонов: 2 сезон: серии 1- 6 из 6
Видео: AVC, 1920x1080 (16:9), 13.8 Mb/s, 25 fps, 0,266 bpp
Аудио №1: русский / AC3 / 2.0 / 48 kHz / 384 kbps / |LostFilm|
Аудио №2: русский / AC3 / 2.0 / 48 kHz / 192 kbps / |AlexFilm|
Аудио №3: русский / AC3 / 2.0 / 48 kHz / 192 kbps / |Кубик в кубе|
Аудио №4: английский / DTS-HD / 2.0 / 48 kHz / 1623 kbps / 16 bit (Core: 2.0 / 48 kHz / 1509 kbps / 16 bit)
Субтитры: русские, английские
Список серий
1 серия
Бизнес «Острых козырьков» процветает, и Томас хочет расширить свое предприятие, а это значит — Лондон, новые друзья и новые враги. Но прежде чем смотреть на юг, нужно разобраться с делами у себя дома: не все члены семьи согласны с его решением, а тут еще какие-то неизвестные взорвали паб семьи Шелби без видимых на то причин. Разобравшись с делами, Томас быстро узнает, что Лондон встречает гостей вовсе не так дружелюбно, как он надеялся. Но инспектор Кэмпбелл, у которого как всегда свои планы на Томми, готов спутать карты и ему, и его врагам.

2 серия
Кэмпбелл навещает в больнице избитого Томаса Шелби и предлагает ему сотрудничество; правда, его просьба скорее напоминает угрозу. Сбежав из больницы, Томас отправляется в Лондон на переговоры с главой еврейской банды Альфи Соломонсом, а также пишет письмо Черчиллю, чтобы обойти Кэмпбелла «сверху». Из Америки приходит письмо от Грейс. Братья Шелби дарят дом тете Полли и Эйде и восстанавливают разгромленный конкурентами паб «Гарнизон». Очередной приступ неконтролируемой ярости Артура Шелби приводит к трагедии. Томми находит своих кузенов, много лет назад отданных на усыновление.

3 серия
Банда «Острые козырьки» находит оригинальный способ противостоять волне полицейских облав, направленных против нелегальных букмекеров. Майкл Грей знакомится с матерью и кузенами. Томас Шелби нанимает большую группу безработных ветеранов Первой Мировой для работы на подпольном предприятии Альфи Соломонса. Сабини бросает Шелби новый вызов. Психические проблемы Артура едва не стоят ему жизни. Томми едет на аукцион, чтобы купить скаковую лошадь, и заводит интересное знакомство.

4 серия
Томас Шелби встречается с Кэмпбеллом и двумя членами ИРА, которые вынуждают его пойти на неприятное соглашение. Отпраздновав свое совершеннолетие вместе с Шелби, Майкл получает работу в семейном бизнесе. Мэй Карлтон навещает Томаса Шелби в конторе и забирает его лошадь, чтобы подготовить ее к скачкам. Гангстера и светскую леди непреодолимо тянет друг к другу. Новое разрушительное увлечение Артура Шелби создает напряжение между братьями. Сабини пытается убедить Альфи Соломонса объединиться против «Острых козырьков». Томми приводит свои дела в порядок, готовясь к опасной операции.

5 серия
Чувствуя, что Томас Шелби вот-вот сорвется с крючка, Кэмпбелл предпринимает ряд шагов, которые могли бы помочь ему сохранить контроль над заядлым врагом. Члены семьи Шелби в опасности. Полли решается на отчаянный поступок, чтобы вызволить Майкла из тюрьмы. Томми встречается с Грэйс, о чем позже честно рассказывает Мэй Карлтон. Которая из двух красавиц завладеет его сердцем безраздельно? Несмотря на козни Кэмпбелла, глава «Острых козырьков» придумывает новый способ навязать коварному инспектору свои условия игры.

6 серия
Наступает решающий день: день скачек в Эпсоме. Кэмпбелл посылает на Дерби бойцов ИРА, чтобы прикончить Томаса Шелби после выполнения задания Черчилля. Сам Томас, предварительно подготовив письмо в прессу на случай провала, приводит в действие свой сложный план, в котором задействованы почти все члены семьи Шелби и ударный отряд «Острых козырьков». Сможет ли гениальный комбинатор осуществить задуманное и остаться в живых, и не помешает ли ему «женский фактор»?
МедиаИнфо
General
Unique ID : 38124612628756773294340778653320014367 (0x1CAE8886DF51EC231360758E3C24EA1F)
Complete name : D:\Я\Фильмы\Peaky.Blinders.S01-04\Season2\Peaky.Blinders.S02E01.1080.films.club.mkv
Format : Matroska
Format version : Version 4 / Version 2
File size : 6.63 GiB
Duration : 58 min
Overall bit rate mode : Variable
Overall bit rate : 16.1 Mb/s
Encoded date : UTC 2018-04-18 13:55:06
Writing application : mkvmerge v22.0.0 ('At The End Of The World') 64-bit
Writing library : libebml v1.3.5 + libmatroska v1.4.8

Video
ID : 1
Format : AVC
Format/Info : Advanced Video Codec
Format profile : [email protected]
Format settings, CABAC : Yes
Format settings, ReFrames : 3 frames
Codec ID : V_MPEG4/ISO/AVC
Duration : 58 min
Bit rate mode : Variable
Bit rate : 13.8 Mb/s
Maximum bit rate : 35.0 Mb/s
Width : 1 920 pixels
Height : 1 080 pixels
Display aspect ratio : 16:9
Frame rate mode : Constant
Frame rate : 25.000 FPS
Color space : YUV
Chroma subsampling : 4:2:0
Bit depth : 8 bits
Scan type : MBAFF
Scan type, store method : Interleaved fields
Scan order : Top Field First
Bits/(Pixel*Frame) : 0.266
Stream size : 5.62 GiB (85%)
Title : Peaky.Blinders
Writing library : x264 core 148
Encoding settings : cabac=1 / ref=3 / deblock=1:-1:-1 / analyse=0x3:0x112 / me=dia / subme=1 / psy=1 / psy_rd=1.00:0.00 / mixed_ref=0 / me_range=12 / chroma_me=1 / trellis=1 / 8x8dct=1 / cqm=0 / deadzone=21,11 / fast_pskip=0 / chroma_qp_offset=0 / threads=8 / lookahead_threads=4 / sliced_threads=0 / nr=0 / decimate=1 / interlaced=tff / bluray_compat=0 / constrained_intra=0 / bframes=4 / b_pyramid=0 / b_adapt=2 / b_bias=0 / direct=3 / weightb=1 / open_gop=0 / weightp=0 / keyint=1000 / keyint_min=2 / scenecut=40 / intra_refresh=0 / rc_lookahead=2 / rc=abr / mbtree=0 / bitrate=13797 / ratetol=1.0 / qcomp=0.50 / qpmin=0 / qpmax=69 / qpstep=4 / vbv_maxrate=35000 / vbv_bufsize=30000 / nal_hrd=vbr / filler=0 / ip_ratio=1.10 / pb_ratio=1.10 / aq=1:1.00
Default : Yes
Forced : No
Color range : Limited
Color primaries : BT.709
Transfer characteristics : BT.709
Matrix coefficients : BT.709

Audio #1
ID : 2
Format : AC-3
Format/Info : Audio Coding 3
Mode extension : CM (complete main)
Format settings, Endianness : Big
Codec ID : A_AC3
Duration : 58 min
Bit rate mode : Constant
Bit rate : 384 kb/s
Channel(s) : 2 channels
Channel positions : Front: L R
Sampling rate : 48.0 kHz
Frame rate : 31.250 FPS (1536 spf)
Compression mode : Lossy
Stream size : 162 MiB (2%)
Title : LostFilm
Language : Russian
Default : Yes
Forced : No

Audio #2
ID : 3
Format : AC-3
Format/Info : Audio Coding 3
Mode extension : CM (complete main)
Format settings, Endianness : Big
Codec ID : A_AC3
Duration : 58 min
Bit rate mode : Constant
Bit rate : 192 kb/s
Channel(s) : 2 channels
Channel positions : Front: L R
Sampling rate : 48.0 kHz
Frame rate : 31.250 FPS (1536 spf)
Compression mode : Lossy
Stream size : 80.7 MiB (1%)
Title : AlexFilm
Language : Russian
Default : No
Forced : No

Audio #3
ID : 4
Format : AC-3
Format/Info : Audio Coding 3
Mode extension : CM (complete main)
Format settings, Endianness : Big
Codec ID : A_AC3
Duration : 58 min
Bit rate mode : Constant
Bit rate : 192 kb/s
Channel(s) : 2 channels
Channel positions : Front: L R
Sampling rate : 48.0 kHz
Frame rate : 31.250 FPS (1536 spf)
Compression mode : Lossy
Stream size : 80.9 MiB (1%)
Title : Кубик в Кубе
Language : Russian
Default : No
Forced : No

Audio #4
ID : 5
Format : DTS
Format/Info : Digital Theater Systems
Format profile : MA / Core
Mode : 16
Format settings, Endianness : Big
Codec ID : A_DTS
Duration : 58 min
Bit rate mode : Variable / Constant
Bit rate : 1 624 kb/s / 1 509 kb/s
Channel(s) : 2 channels
Channel positions : Front: L R
Sampling rate : 48.0 kHz
Frame rate : 93.750 FPS (512 spf)
Bit depth : 16 bits
Compression mode : Lossless / Lossy
Stream size : 684 MiB (10%)
Title : Original
Language : English
Default : No
Forced : No

Text #1
ID : 6
Format : PGS
Muxing mode : zlib
Codec ID : S_HDMV/PGS
Codec ID/Info : Picture based subtitle format used on BDs/HD-DVDs
Duration : 58 min
Bit rate : 46.6 kb/s
Count of elements : 1400
Stream size : 19.6 MiB (0%)
Language : Russian
Default : No
Forced : No

Text #2
ID : 7
Format : PGS
Muxing mode : zlib
Codec ID : S_HDMV/PGS
Codec ID/Info : Picture based subtitle format used on BDs/HD-DVDs
Duration : 58 min
Bit rate : 45.7 kb/s
Count of elements : 1322
Stream size : 19.0 MiB (0%)
Language : English
Default : No
Forced : No

Text #3
ID : 8
Format : PGS
Muxing mode : zlib
Codec ID : S_HDMV/PGS
Codec ID/Info : Picture based subtitle format used on BDs/HD-DVDs
Duration : 58 min
Bit rate : 32.9 kb/s
Count of elements : 1440
Stream size : 13.7 MiB (0%)
Language : English
Default : No
Forced : No
Скриншоты
Сезон 3
Год выпуска: 2016
Продолжительность: 00:55:42
Кол-во серий/сезонов: 3 сезон: серии 1- 6 из 6
Видео: AVC, 1920x1080 (16:9), 27.8 Mb/s, 25 fps, 0,537 bpp
Аудио №1: русский / AC3 / 5.1 / 48 kHz / 640 kbps / |AlexFilm|
Аудио №2: русский / AC3 / 5.1 / 48 kHz / 640 kbps / |LostFilm|
Аудио №3: русский / AC3 / 5.1 / 48 kHz / 640 kbps / |Кубик в кубе|
Аудио №4: русский / AC3 / 2.0 / 48 kHz / 192 kbps / |Jaskier|
Аудио №5: английский / DTS-HD / 5.1 / 48 kHz / 1830 kbps / 16 bit (Core: 5.1 / 48 kHz / 1509 kbps / 16 bit)
Субтитры: русские, английские
Список серий
1 серия
В большом поместье Томаса Шелби отмечается грандиозное событие: долгожданная свадьба. Но чтобы бурное веселье не переросло в поножовщину, Томасу приходится приложить титанические усилия: урезонить братьев и друзей, чтобы те вели себя прилично и не задирали столичных гостей со стороны невесты, невероятно сложно. Напряжение нарастает, когда появляется опасный гость, с которым необходимо заключить сделку...

2 серия
Джон Шелби провоцирует конфликт между «Острыми козырьками» и итальянцами. Перед тем, как отправиться на встречу с князем, Томас Шелби тщательно наводит о нем справки. Портретист Оливер наносит визит Полли. Хьюз прибегает к новым угрозам, чтобы вынудить Томаса Шелби играть по своим правилам.

3 серия
Томас Шелби пребывает в депрессии. В конце концов он решает вернуться к работе и дает братьям задание, которое приводит их в замешательство, а сам отправляется с сыном в Уэльс. «Острые Козырьки» готовят масштабную операцию, но чтобы подстраховаться, Томасу необходимо вычислить информатора, который может ему помешать. Король Бирмингемских гангстеров вновь наносит визит представителям аристократии.

4 серия
Томас делится грандиозными планами с братьями и ближайшими помощниками. Однако женская половина бандитского семейства Шелби, не желая оставаться в неведении, заявляет главе клана свой протест. Томас пытается выпытать у княжны Татьяны больше информации. Хьюз и Джарвис наносят еще один удар.

5 серия
Оправившись после избиения, Томас Шелби разрабатывает план ограбления русских аристократов и план мести обидчикам — Хьюзу и Джарвису, и посвящает в них членов своей семьи. Однако для осуществления задуманного банде Шелби необходимо заручиться поддержкой давнего соперника. Вместе с Артуром и Джоном Томас идет в Хэмптон–Корт на разведку, а тетя Полли — на свидание.

6 серия
Во время торжественного открытия приюта для сирот имени Грейс Шелби злоумышленники похищают сына Томаса — Чарли. Хьюз выдвигает новые требования в обмен на жизнь ребенка. Томас в отчаянии: рытье подкопа задерживается, братьев вынуждают убить ни в чем неповинных людей, а в рядах «Острых козырьков» есть предатель.
МедиаИнфо
General
Unique ID : 135922502819572963395230740569500290499 (0x6641B8C9D392FEC14B3FCA767F820DC3)
Complete name : D:\Я\Фильмы\Peaky.Blinders.S01-04\Season3\Peaky.Blinders.S03E01.1080.films.club.mkv
Format : Matroska
Format version : Version 4 / Version 2
File size : 12.4 GiB
Duration : 55 min
Overall bit rate mode : Variable
Overall bit rate : 31.8 Mb/s
Encoded date : UTC 2018-04-18 12:01:57
Writing application : mkvmerge v22.0.0 ('At The End Of The World') 64-bit
Writing library : libebml v1.3.5 + libmatroska v1.4.8

Video
ID : 1
Format : AVC
Format/Info : Advanced Video Codec
Format profile : [email protected]
Format settings, CABAC : Yes
Format settings, ReFrames : 4 frames
Codec ID : V_MPEG4/ISO/AVC
Duration : 55 min
Bit rate mode : Variable
Bit rate : 27.8 Mb/s
Maximum bit rate : 33.0 Mb/s
Width : 1 920 pixels
Height : 1 080 pixels
Display aspect ratio : 16:9
Frame rate mode : Constant
Frame rate : 25.000 FPS
Color space : YUV
Chroma subsampling : 4:2:0
Bit depth : 8 bits
Scan type : MBAFF
Scan type, store method : Interleaved fields
Scan order : Top Field First
Bits/(Pixel*Frame) : 0.537
Stream size : 10.8 GiB (88%)
Title : Peaky.Blinders
Default : Yes
Forced : No

Audio #1
ID : 2
Format : AC-3
Format/Info : Audio Coding 3
Mode extension : CM (complete main)
Format settings, Endianness : Big
Codec ID : A_AC3
Duration : 55 min
Bit rate mode : Constant
Bit rate : 640 kb/s
Channel(s) : 6 channels
Channel positions : Front: L C R, Side: L R, LFE
Sampling rate : 48.0 kHz
Frame rate : 31.250 FPS (1536 spf)
Compression mode : Lossy
Stream size : 255 MiB (2%)
Title : AlexFilm
Language : Russian
Default : Yes
Forced : No

Audio #2
ID : 3
Format : AC-3
Format/Info : Audio Coding 3
Mode extension : CM (complete main)
Format settings, Endianness : Big
Codec ID : A_AC3
Duration : 55 min
Bit rate mode : Constant
Bit rate : 640 kb/s
Channel(s) : 6 channels
Channel positions : Front: L C R, Side: L R, LFE
Sampling rate : 48.0 kHz
Frame rate : 31.250 FPS (1536 spf)
Compression mode : Lossy
Stream size : 255 MiB (2%)
Title : LostFilm
Language : Russian
Default : No
Forced : No

Audio #3
ID : 4
Format : AC-3
Format/Info : Audio Coding 3
Mode extension : CM (complete main)
Format settings, Endianness : Big
Codec ID : A_AC3
Duration : 55 min
Bit rate mode : Constant
Bit rate : 640 kb/s
Channel(s) : 6 channels
Channel positions : Front: L C R, Side: L R, LFE
Sampling rate : 48.0 kHz
Frame rate : 31.250 FPS (1536 spf)
Compression mode : Lossy
Stream size : 255 MiB (2%)
Title : Kybik v Kube
Language : Russian
Default : No
Forced : No

Audio #4
ID : 5
Format : AC-3
Format/Info : Audio Coding 3
Mode extension : CM (complete main)
Format settings, Endianness : Big
Codec ID : A_AC3
Duration : 55 min
Bit rate mode : Constant
Bit rate : 192 kb/s
Channel(s) : 2 channels
Channel positions : Front: L R
Sampling rate : 48.0 kHz
Frame rate : 31.250 FPS (1536 spf)
Compression mode : Lossy
Stream size : 76.4 MiB (1%)
Title : Jaskier
Language : Russian
Default : No
Forced : No

Audio #5
ID : 6
Format : DTS
Format/Info : Digital Theater Systems
Format profile : MA / Core
Mode : 16
Format settings, Endianness : Big
Codec ID : A_DTS
Duration : 55 min
Bit rate mode : Variable / Constant
Bit rate : 1 830 kb/s / 1 509 kb/s
Channel(s) : 6 channels
Channel positions : Front: L C R, Side: L R, LFE
Sampling rate : 48.0 kHz
Frame rate : 93.750 FPS (512 spf)
Bit depth : 16 bits
Compression mode : Lossless / Lossy
Stream size : 729 MiB (6%)
Title : Original
Language : English
Default : No
Forced : No

Text #1
ID : 7
Format : UTF-8
Codec ID : S_TEXT/UTF8
Codec ID/Info : UTF-8 Plain Text
Duration : 54 min
Bit rate : 80 b/s
Count of elements : 594
Stream size : 32.2 KiB (0%)
Title : rus (N-Team)
Language : Russian
Default : No
Forced : No

Text #2
ID : 8
Format : UTF-8
Codec ID : S_TEXT/UTF8
Codec ID/Info : UTF-8 Plain Text
Duration : 55 min
Bit rate : 53 b/s
Count of elements : 697
Stream size : 21.6 KiB (0%)
Title : CC
Language : English
Default : No
Forced : No

Text #3
ID : 9
Format : PGS
Muxing mode : zlib
Codec ID : S_HDMV/PGS
Codec ID/Info : Picture based subtitle format used on BDs/HD-DVDs
Duration : 55 min
Bit rate : 33.7 kb/s
Count of elements : 1389
Stream size : 13.3 MiB (0%)
Title : Original
Language : English
Default : No
Forced : No
Скриншоты
Сезон 4
Год выпуска: 2017
Продолжительность: 00:57:54
Кол-во серий/сезонов: 4 сезон: серии 1- 6 из 6
Видео: AVC, 1920x1080 (16:9), 29.8 Mb/s, 25 fps, 0,576 bpp
Аудио №1: AC3 / 2.0 / 48 kHz / 192 kbps /|Кубик в кубе|
Аудио №2: AC3 / 2.0 / 48 kHz / 224 kbps /|AlexFilm|
Аудио №3: AC3 / 2.0 / 48 kHz / 384 kbps /|LostFilm|
Аудио №4: английский / DTS-HD / 5.1 / 48 kHz / 1762 kbps / 16 bit (Core: 5.1 / 48 kHz / 1509 kbps / 16 bit)
Субтитры: английские
Список серий
1 серия
Семейство Шелби арестовывают, и всех их ждет повешение. Томасу приходится постараться, чтобы вовремя вытащить родных из петли. Год спустя, в канун Рождества, несмотря на уговоры, Томми не планирует встречаться с членами семьи даже ради собственного сына. Однако послание от итальянской мафии, желающей вырезать всех с фамилией Шелби, вносит коррективы в планы главы клана. Он объявляет экстренное собрание родственников с целью защитить их от уже прибывших в город киллеров.

2 серия
Произошедшая трагедия становится потрясением для всех Шелби, однако решение Томаса нанять людей Голда для защиты семьи не вызывает энтузиазма у остальных. Больше всех переживающая из-за случившегося Полли решает оградить уцелевшего сына от возможного повторения опасной ситуации. Томас между тем использует близких как приманку для вендетты, находит способ исполнить тайное желание Аберамы, а также встречается со своим противником лицом к лицу и договаривается о правилах грядущей войны.

3 серия
Полли стараниями Томми снова занимает место казначея. Неофициальной, но главной темой собрания Шелби становится обсуждение вендетты против Луки Чангретты и его людей. Несмотря на отсутствие Артура, Томас проводит голосование в пользу привлечения людей Голда для расправы над итальянцами. Самого Артура ждет насыщенный день, позволяющий мужчине удовлетворить сразу несколько потребностей. Томас же, узнав о произошедшем с братом, решает проверить еще один возможный источник информации о неприятеле, в то время как Полли начинает собственную игру против неугодных ей людей.

4 серия
Итальянцы решают использовать женщину, чей сын погиб по вине Артура, как приманку. Несмотря на старания Томаса, Лука обходит его, передавая одному из Шелби послание. Узнав о сообщении, Полли делает свой ход, в то время как Томас продолжает продвигать сына Голда, параллельно пытаясь подготовить новый бизнес к запуску. Тем временем в город прибывает Мэй Карлтон, и это заставляет Томаса искать способ удержать ее подле себя. Эйда передает Иден послание от брата, приглашая ее на приватную встречу с ним ради взаимовыгодной сделки.

5 серия
К неудовольствию Луки, Томас оказывается подготовленным к организованной итальянцами и Полли ловушке. В итоге ни одному из них не удается добиться желаемого. Чуть позже, собрав совет, глава «Козырьков» вводит всех в курс происходящего, в то время как его самого ждет неожиданная новость от Лиззи. Тем временем Чангретта пытается заключить сделку с Соломонсом, а Эйда узнает о договоренности брата с военными, которая сможет перевести его бизнес на новый уровень. Иден же принимает приглашение Томаса, который настраивает женщину на тесное сотрудничество.

6 серия
В день боя Голиафа с Бонни Лиззи сообщает женщинам Шелби радостную новость, в то время как люди Чангретты наконец-то добиваются желаемого. Соломонс прощается с Томасом до лучших времен, но наступят ли они когда-нибудь? Три месяца спустя отправленный в принудительный отпуск глава клана Шелби начинает постепенно сходить с ума. Вернувшись к делам, он решает вновь взяться за то, что отложил из-за борьбы с итальянцами. Его новая цель ознаменует очередной виток в жизнях и судьбах членов «Острых козырьков».
МедиаИнфо
General
Unique ID : 259286109603303495471019606751014936833 (0xC310B03220580E92B0DE5A302CCDE101)
Complete name : D:\Я\Фильмы\Peaky.Blinders.S01-04\Season4\Peaky.Blinders.S04E01.1080.films.club.mkv
Format : Matroska
Format version : Version 4 / Version 2
File size : 13.1 GiB
Duration : 57 min
Overall bit rate mode : Variable
Overall bit rate : 32.4 Mb/s
Encoded date : UTC 2018-04-19 12:04:45
Writing application : mkvmerge v22.0.0 ('At The End Of The World') 64-bit
Writing library : libebml v1.3.5 + libmatroska v1.4.8

Video
ID : 1
Format : AVC
Format/Info : Advanced Video Codec
Format profile : [email protected]
Format settings, CABAC : Yes
Format settings, ReFrames : 4 frames
Codec ID : V_MPEG4/ISO/AVC
Duration : 57 min
Bit rate mode : Variable
Bit rate : 29.8 Mb/s
Maximum bit rate : 33.0 Mb/s
Width : 1 920 pixels
Height : 1 080 pixels
Display aspect ratio : 16:9
Frame rate mode : Constant
Frame rate : 25.000 FPS
Color space : YUV
Chroma subsampling : 4:2:0
Bit depth : 8 bits
Scan type : MBAFF
Scan type, store method : Interleaved fields
Scan order : Top Field First
Bits/(Pixel*Frame) : 0.576
Stream size : 12.1 GiB (92%)
Default : Yes
Forced : No

Audio #1
ID : 2
Format : AC-3
Format/Info : Audio Coding 3
Mode extension : CM (complete main)
Format settings, Endianness : Big
Codec ID : A_AC3
Duration : 57 min
Bit rate mode : Constant
Bit rate : 192 kb/s
Channel(s) : 2 channels
Channel positions : Front: L R
Sampling rate : 48.0 kHz
Frame rate : 31.250 FPS (1536 spf)
Compression mode : Lossy
Stream size : 79.5 MiB (1%)
Title : a
Default : Yes
Forced : No

Audio #2
ID : 3
Format : AC-3
Format/Info : Audio Coding 3
Mode extension : CM (complete main)
Format settings, Endianness : Big
Codec ID : A_AC3
Duration : 57 min
Bit rate mode : Constant
Bit rate : 224 kb/s
Channel(s) : 2 channels
Channel positions : Front: L R
Sampling rate : 48.0 kHz
Frame rate : 31.250 FPS (1536 spf)
Compression mode : Lossy
Stream size : 92.7 MiB (1%)
Title : c
Default : No
Forced : No

Audio #3
ID : 4
Format : AC-3
Format/Info : Audio Coding 3
Mode extension : CM (complete main)
Format settings, Endianness : Big
Codec ID : A_AC3
Duration : 57 min
Bit rate mode : Constant
Bit rate : 384 kb/s
Channel(s) : 2 channels
Channel positions : Front: L R
Sampling rate : 48.0 kHz
Frame rate : 31.250 FPS (1536 spf)
Compression mode : Lossy
Stream size : 159 MiB (1%)
Title : l
Default : No
Forced : No

Audio #4
ID : 5
Format : DTS
Format/Info : Digital Theater Systems
Format profile : MA / Core
Mode : 16
Format settings, Endianness : Big
Codec ID : A_DTS
Duration : 57 min
Bit rate mode : Variable / Constant
Bit rate : 1 763 kb/s / 1 509 kb/s
Channel(s) : 6 channels
Channel positions : Front: L C R, Side: L R, LFE
Sampling rate : 48.0 kHz
Frame rate : 93.750 FPS (512 spf)
Bit depth : 16 bits
Compression mode : Lossless / Lossy
Stream size : 730 MiB (5%)
Language : English
Default : No
Forced : No

Text
ID : 6
Format : PGS
Muxing mode : zlib
Codec ID : S_HDMV/PGS
Codec ID/Info : Picture based subtitle format used on BDs/HD-DVDs
Duration : 57 min
Bit rate : 37.4 kb/s
Count of elements : 1564
Stream size : 15.3 MiB (0%)
Language : English
Default : No
Forced : No
Скриншоты
Peaky.Blinders.S01-04.torrent
 ЗОЛОТАЯ РАЗДАЧА! СКАЧАННОЕ НЕ ЗАСЧИТЫВАЕТСЯ! 
Вечный
Трекер: Зарегистрирован

magnet ссылка

 


Скачать .torrent

601 KB

Статус: проверено (by ikar666 в 06-Июл-18 09:13)
Зарегистрирован: 05-Июл-18 22:30
Скачан: 3 раза
Размер: 239.37 GB | 
Поблагодарили:
Скачать Острые козырьки / Заточенные кепки / Peaky Blinders ( Сезон 1-4 / Серии 1-24 из 24) (Колм МакКарти, Тим Милантс, Дэвид Кэффри) [2013-2017, драма, криминал, BDRemux 1080p] 3 MVO, 1 DVO (AlexFilm, LostFilm, Ozz-tv, Кубик в кубе) торрент
 


Похожие раздачи

ikar666

post 05-Июл-18 23:27 (спустя 57 минут)

 ! 
Постер убавить max 600
Качество: BDRemux 1080p (Исправить в названии темы.)
Добавить в каждый спойлер с сезонами: Видео: (в каждом сезоне разный битрейт)
Видео: AVC, 1920x1080 (16:9), 15578 kbps, 25 fps, 0,301 bpp Убрать

Перевод: Профессиональный [многоголосый] добавить Профессиональный двухголосый
В названии темы дописать: 3 MVO, 1 DVO (AlexFilm, LostFilm, Ozz-tv, Кубик в кубе)
Битрейт видио указать как в отчете в Mb/s
В названии темы Сезоны серии Убрать в скобки.
Добавить в каждый спойлер с сезонами Серии: 1-по.. из (..)
В 3 сезоне добавить графу Субтитры:

Suentebueck

post 06-Июл-18 00:31 (спустя 1 час 3 минуты)

ikar666 Готово

mast3rjke

post 14-Окт-18 17:11 (спустя 3 месяца 8 дней)

Пожалуйста на раздачу

Suentebueck

post 16-Окт-18 22:22 (спустя 2 дня 5 часов)

mast3rjke
Завтра будет тебе раздача

Текущее время: 13-Ноя 09:41

Часовой пояс: GMT + 3



Вы не можете начинать темы
Вы не можете отвечать на сообщения
Вы не можете редактировать свои сообщения
Вы не можете удалять свои сообщения
Вы не можете голосовать в опросах
Вы не можете прикреплять файлы к сообщениям
Вы не можете скачивать файлы