Loading...
Error
 

Скачать торрент Моана / Moana (Рон Клементс, Дон Холл, Джон Маскер) [2016, мультфильм, мюзикл, фэнтези, комедия, приключения, семейный, BDRip 720p] [60 fps] [Лицензия]

 
Автор Сообщение

ilyash_rekviem

post 07-Июл-18 21:18

Моана / Moana

pic
Год выпуска: 2016
Страна: США
Жанр: мультфильм, мюзикл, фэнтези, комедия, приключения, семейный
Продолжительность: 01:47:12
Перевод: Профессиональный (полное дублирование) | Лицензия
Cубтитры: Русские (Форс, полные), Английские (полные, SHD)
Режиссер: Рон Клементс, Дон Холл, Джон Маскер
Роли озвучивали: Аульи Кравальо, Дуэйн Джонсон, Рэйчел Хаус, Темуэра Моррисон, Джемейн Клемент, Николь Шерзингер, Алан Тьюдик, Оскар Кайтли и др.
Роли дублировали: Зина Куприянович, Григорий Сиятвинда, Мариам Мерабова, Денис Клявер, Илья Лагутенко, Юлианна Караулова, Василиса Эльдарова, Владимир Войтюк, Екатерина Фролова и др.
Описание: Бесстрашная Моана, дочь вождя маленького племени на острове в Тихом океане, больше всего на свете мечтает о приключениях и решает отправиться в опасное морское путешествие. Вместе с некогда могущественным полубогом Мауи им предстоит пересечь океан, сразиться со страшными чудовищами и разрушить древнее заклятие.
Качество: BDRip 720p
Формат: MKV
Видео кодек: х.264
Аудио кодек: AC3
Видео: 1280x536, 6197 Кбит/сек, 60.000 кадр/сек, AVC, x264, [email protected], 2.40:1, 0.151 Бит
Аудио 1: AC-3, 640 Кбит/сек, 6 канала(ов), 48,0 КГц - Дублированный / Русский
Аудио 2: AC-3, 640 Кбит/сек, 6 канала(ов), 48,0 КГц - Оригинал / Английский
MediaInfo
G:\Moana.(2016).BDRip.720p.60fps.mkv
General
Unique ID : 190665533254267712260912901220395042666 (0x8F70D89284BED5998137FF72463AC76A)
Complete name : G:\Moana.(2016).BDRip.720p.60fps.mkv
Format : Matroska
Format version : Version 2
File size : 5.71 GiB
Duration : 1h 47mn
Overall bit rate : 7 629 Kbps
Movie name : Moana.(2016).BDRip.720p.[envy].[60fps]
Encoded date : UTC 2017-03-24 04:59:56
Writing application : mkvmerge v5.8.0 ('No Sleep / Pillow') built on Sep 2 2012 15:37:04
Writing library : libebml v1.2.3 + libmatroska v1.3.0
Video #1
ID : 1
Format : AVC
Format/Info : Advanced Video Codec
Format profile : [email protected]
Format settings, CABAC : Yes
Format settings, ReFrames : 9 frames
Codec ID : V_MPEG4/ISO/AVC
Duration : 1h 47mn
Bit rate : 6 197 Kbps
Width : 1 280 pixels
Height : 536 pixels
Display aspect ratio : 2.40:1
Frame rate : 60.000 fps
Color space : YUV
Chroma subsampling : 4:2:0
Bit depth : 8 bits
Scan type : Progressive
Bits/(Pixel*Frame) : 0.151
Stream size : 4.64 GiB (81%)
Title : Moana.(2016).BDRip.720p.[envy].[60fps]
Writing library : x264 core 146 r2538 121396c
Encoding settings : cabac=1 / ref=9 / deblock=1:0:0 / analyse=0x3:0x113 / me=umh / subme=9 / psy=1 / psy_rd=1.00:0.00 / mixed_ref=1 / me_range=24 / chroma_me=1 / trellis=2 / 8x8dct=1 / cqm=0 / deadzone=21,11 / fast_pskip=0 / chroma_qp_offset=-2 / threads=12 / lookahead_threads=1 / sliced_threads=0 / nr=0 / decimate=1 / interlaced=0 / bluray_compat=0 / constrained_intra=0 / bframes=5 / b_pyramid=2 / b_adapt=2 / b_bias=0 / direct=3 / weightb=1 / open_gop=0 / weightp=2 / keyint=250 / keyint_min=25 / scenecut=40 / intra_refresh=0 / rc_lookahead=40 / rc=crf / mbtree=0 / crf=17.0 / qcomp=0.60 / qpmin=0 / qpmax=69 / qpstep=4 / vbv_maxrate=14000 / vbv_bufsize=14000 / crf_max=0.0 / nal_hrd=none / filler=0 / ip_ratio=1.40 / pb_ratio=1.30 / aq=3:1.00
Language : English
Default : Yes
Forced : No
Audio #2
ID : 2
Format : AC-3
Format/Info : Audio Coding 3
Mode extension : CM (complete main)
Format settings, Endianness : Big
Codec ID : A_AC3
Duration : 1h 47mn
Bit rate mode : Constant
Bit rate : 640 Kbps
Channel(s) : 6 channels
Channel positions : Front: L C R, Side: L R, LFE
Sampling rate : 48.0 KHz
Bit depth : 16 bits
Compression mode : Lossy
Stream size : 491 MiB (8%)
Title : Dub
Language : Russian
Default : Yes
Forced : No
Audio #3
ID : 3
Format : AC-3
Format/Info : Audio Coding 3
Mode extension : CM (complete main)
Format settings, Endianness : Big
Codec ID : A_AC3
Duration : 1h 47mn
Bit rate mode : Constant
Bit rate : 640 Kbps
Channel(s) : 6 channels
Channel positions : Front: L C R, Side: L R, LFE
Sampling rate : 48.0 KHz
Bit depth : 16 bits
Compression mode : Lossy
Stream size : 491 MiB (8%)
Title : Eng
Language : English
Default : No
Forced : No
Text #4
ID : 4
Format : UTF-8
Codec ID : S_TEXT/UTF8
Codec ID/Info : UTF-8 Plain Text
Title : Rus full
Language : Russian
Default : No
Forced : No
Text #5
ID : 5
Format : UTF-8
Codec ID : S_TEXT/UTF8
Codec ID/Info : UTF-8 Plain Text
Title : Eng full
Language : English
Default : No
Forced : No
Menu
00:00:00.000 : :Chapter 01
00:07:15.685 : :Chapter 02
00:11:59.802 : :Chapter 03
00:16:13.764 : :Chapter 04
00:21:29.579 : :Chapter 05
00:28:02.806 : :Chapter 06
00:32:11.346 : :Chapter 07
00:35:16.280 : :Chapter 08
00:41:36.869 : :Chapter 09
00:45:04.868 : :Chapter 10
00:49:10.322 : :Chapter 11
00:53:21.031 : :Chapter 12
00:57:33.324 : :Chapter 13
01:05:45.024 : :Chapter 14
01:10:46.075 : :Chapter 15
01:12:52.117 : :Chapter 16
01:15:41.954 : :Chapter 17
01:23:17.075 : :Chapter 18
01:29:50.927 : :Chapter 19
01:36:13.726 : :Chapter 20
Скриншоты
Moana.(2016).BDRip.720p.60fps.mkv.torrent
Трекер: Зарегистрирован

magnet ссылка

 


Скачать .torrent

15 KB

Статус: проверено (by Snowden в 08-Июл-18 01:37)
Зарегистрирован: 07-Июл-18 21:18
Скачан: 64 раза
Размер: 5.71 GB | 
Поблагодарили:
Скачать Моана / Moana (Рон Клементс, Дон Холл, Джон Маскер) [2016, мультфильм, мюзикл, фэнтези, комедия, приключения, семейный, BDRip 720p] [60 fps] [Лицензия] торрент
 


Похожие раздачи

Текущее время: 10-Дек 05:44

Часовой пояс: GMT + 3



Вы не можете начинать темы
Вы не можете отвечать на сообщения
Вы не можете редактировать свои сообщения
Вы не можете удалять свои сообщения
Вы не можете голосовать в опросах
Вы не можете прикреплять файлы к сообщениям
Вы не можете скачивать файлы