Loading...
Error
 

Скачать торрент Танки (Ким Дружинин) [2018 г., приключения, история, военный, BDRip 720p] | Лицензия

 
Автор Сообщение

Snowden

post 16-Июл-18 02:24


Танки
«Первые непобедимые»

pic
Год выхода: 2018
Страна: Россия
Жанр: приключения, история, военный
Продолжительность: 01:33:05
Перевод: Не требуется | Лицензия
Субтитры: Отсутствуют

Режиссер: Ким Дружинин
В ролях: Андрей Мерзликин, Аглая Тарасова, Александр Тютин, Сергей Стукалов, Антон Филипенко, Алексей Овсянников, Сергей Четвертков, Николай Горшков, Дмитрий Поднозов, Юрий Ицков
О фильме: На пороге войны с фашистской Германией инженер Михаил Кошкин разрабатывает прототип нового инновационного танка Т-34. Чтобы доказать уникальность боевой машины, Кошкин и его команда отправляются в Москву на танках своим ходом. Но вскоре пробег превращается в непредсказуемую гонку, где бездорожье лишь меньшее из зол… Пройдя череду опасных приключений и благодаря безупречным техническим и боевым качествам новых танков, героям удается одержать верх над преследователями и доказать превосходство Т-34.
Качество: BDRip 720p
Формат: mkv
Видео кодек: AVC
Аудио кодек: AC3, DTS
Видео: 1280x572, 24.000 fps, 5500 Кбит/с
Аудио #1: AC3, 384 Кбит/с, 6 ch, 48.0 KHz [Russian]
Аудио #2: DTS, 1509 Кбит/с, 6 ch, 48.0 KHz [Russian]
MediaInfo

Код:

General
Уникальный идентификатор : 211321170816655738668729560180620657071 (0x9EFAFA21A5084A199A07F1BDF15A01AF)
Полное имя : TankiBDRip720p.mkv
Формат : Matroska
Версия формата : Version 4 / Version 2
Размер файла : 4.97 GiB
Продолжительность : 1 h 33 min
Общий поток : 7 651 kb/s
Дата кодирования : UTC 2018-07-15 09:43:49
Программа кодирования : mkvmerge v9.5.0 ('Quiet Fire') 64bit
Библиотека кодирования : libebml v1.3.4 + libmatroska v1.4.5

Video
Идентификатор : 1
Формат : AVC
Формат/Информация : Advanced Video Codec
Профиль формата : [email protected]
Настройки формата : CABAC / 9 Ref Frames
Параметр CABAC формата : Yes
Параметр RefFrames формата : 9 frames
Идентификатор кодека : V_MPEG4/ISO/AVC
Продолжительность : 1 h 33 min
Битрейт : 5 500 kb/s
Ширина : 1 280 pixels
Высота : 572 pixels
Соотношение сторон : 2.25:1
Режим частоты кадров : Constant
Частота кадров : 24.000 FPS
Цветовое пространство : YUV
Субдискретизация насыщенности : 4:2:0
Битовая глубина : 8 bits
Тип развёртки : Progressive
Бит/(Пиксели*Кадры) : 0.313
Размер потока : 3.58 GiB (72%)
Библиотека кодирования : x264 core 155 r2901M 7d0ff22
Настройки программы : cabac=1 / ref=9 / deblock=1:-3:-3 / analyse=0x3:0x133 / me=umh / subme=11 / psy=1 / psy_rd=1.00:0.00 / mixed_ref=1 / me_range=48 / chroma_me=1 / trellis=2 / 8x8dct=1 / cqm=0 / deadzone=21,11 / fast_pskip=0 / chroma_qp_offset=-2 / threads=9 / lookahead_threads=2 / sliced_threads=0 / nr=0 / decimate=0 / interlaced=0 / bluray_compat=0 / constrained_intra=0 / bframes=10 / b_pyramid=2 / b_adapt=2 / b_bias=0 / direct=3 / weightb=1 / open_gop=0 / weightp=2 / keyint=240 / keyint_min=10 / scenecut=40 / intra_refresh=0 / rc_lookahead=120 / rc=2pass / mbtree=0 / bitrate=5500 / ratetol=1.0 / qcomp=0.70 / qpmin=0 / qpmax=69 / qpstep=4 / cplxblur=20.0 / qblur=0.5 / vbv_maxrate=50000 / vbv_bufsize=62500 / nal_hrd=none / filler=0 / ip_ratio=1.40 / pb_ratio=1.30 / aq=3:0.80
Default : Yes
Forced : No
Цветовой диапазон : Limited
Основные цвета : BT.709
Характеристики трансфера : BT.709
Коэффициенты матрицы : BT.709

Audio #1
Идентификатор : 2
Формат : DTS
Формат/Информация : Digital Theater Systems
Идентификатор кодека : A_DTS
Продолжительность : 1 h 33 min
Вид битрейта : Constant
Битрейт : 1 509 kb/s
Каналы : 6 channels
Расположение каналов : Front: L C R, Side: L R, LFE
Частота : 48.0 kHz
Частота кадров : 93.750 FPS (512 SPF)
Битовая глубина : 24 bits
Метод сжатия : Lossy
Размер потока : 1 005 MiB (20%)
Язык : Russian
Default : Yes
Forced : No

Audio #2
Идентификатор : 3
Формат : AC-3
Формат/Информация : Audio Coding 3
Идентификатор кодека : A_AC3
Продолжительность : 1 h 33 min
Вид битрейта : Constant
Битрейт : 640 kb/s
Каналы : 6 channels
Расположение каналов : Front: L C R, Side: L R, LFE
Частота : 48.0 kHz
Частота кадров : 31.250 FPS (1536 SPF)
Битовая глубина : 16 bits
Метод сжатия : Lossy
Размер потока : 426 MiB (8%)
Язык : Russian
Default : No
Forced : No

Menu
00:00:00.000 : en:Chapter 1
00:01:13.416 : en:Chapter 2
00:10:40.416 : en:Chapter 3
00:20:29.583 : en:Chapter 4
00:32:30.208 : en:Chapter 5
00:44:52.791 : en:Chapter 6
00:57:32.791 : en:Chapter 7
01:07:56.666 : en:Chapter 8
01:20:44.583 : en:Chapter 9
Рейтинг
pic pic pic
Доп. информация
Бюджет: 140 000 000 руб.
Сборы в России: $1 591 172

Дата российской премьеры: 26 апреля 2018, «Двадцатый Век Фокс СНГ»
Релиз на DVD: 16 июля 2018, «НД Плэй»
Релиз на Blu-Ray: 16 июля 2018, «НД Плэй»
Скриншоты
TankiBDRip720p.mkv.torrent
Трекер: Зарегистрирован

magnet ссылка

 


Скачать .torrent

13 KB

Статус: проверено (by Snowden в 16-Июл-18 02:25)
Зарегистрирован: 16-Июл-18 02:24
Скачан: 262 раза
Размер: 4.97 GB | 
Поблагодарили:
Скачать Танки (Ким Дружинин) [2018 г., приключения, история, военный, BDRip 720p] | Лицензия торрент
 


Похожие раздачи

post 05-Окт-18 17:01 (спустя 2 месяца 20 дней)

Топик был перенесен из форума BDRip / Full HD (720p / 1080p / Ultra HD (4K)) в форум Фильмы


Snowden
 

Текущее время: 18-Ноя 15:04

Часовой пояс: GMT + 3



Вы не можете начинать темы
Вы не можете отвечать на сообщения
Вы не можете редактировать свои сообщения
Вы не можете удалять свои сообщения
Вы не можете голосовать в опросах
Вы не можете прикреплять файлы к сообщениям
Вы не можете скачивать файлы