Loading...
Error
 

Скачать торрент Мадагаскар 3 / Madagascar 3: Europe's Most Wanted (Эрик Дарнелл, Том МакГрат, Конрад Вернон) [2012, мультфильм, комедия, приключения, семейный, BDRip-AVC] [60 fps] DUB [Лицензия]

 
Автор Сообщение

ilyash_rekviem

post 23-Июл-18 11:51

Мадагаскар 3 / Madagascar 3: Europe's Most Wanted

pic
Информация о фильме
picГод выхода: 2012
picСтрана: США
picЖанр: мультфильм, комедия, приключения, семейный
picПродолжительность: 01:33:24
picПеревод: Дублированный [Лицензия]
picCубтитры: Русские (Rus), английские (Eng), украинские (Ukr)
picРежиссер: Эрик Дарнелл, Том МакГрат, Конрад Вернон
picРоли озвучивали: Бен Стиллер (Alex, озвучка), Крис Рок (Marty, озвучка), Дэвид Швиммер (Melman, озвучка), Джада Пинкетт Смит (Gloria, озвучка), Саша Барон Коэн (Julien, озвучка), Седрик «Развлекатель» (Maurice, озвучка), Энди Рихтер (Mort, озвучка), Том МакГрат (Skipper / First Policeman, озвучка), Фрэнсис МакДорманд (Captain Chantel DuBois, озвучка), Джессика Честейн (Gia, озвучка), Брайан Крэнстон (Vitaly, озвучка), Мартин Шорт (Stefano, озвучка)
О фильме
Лев Алекс, зебра Марти, гиппопотамиха Глория и жираф Мелман, а также король Джулиан, Морис, Морт и Пингвины все еще пытаются вернуться в Нью-Йорк. На этот раз их путь пройдет через Европу, где они откроют свой цирк.
Файл
picКачество: BDRip-AVC / 60 FPS / (исходник Blu-ray Disc Remux)
picФормат: MKV
picВидео кодек: H.264
picАудио кодек: AC3
picВидео: AVC, 1024x576 (16:9), 5474 kbps, 59,940 fps, 0,155 bpp
picАудио #1: AC3 / 5.1 / 48 kHz / 448 kbps / 16 bit - Дублированный [RUS]
MediaInfo
E:\мадагаскар 1-4\Madagaskar 3 - Europe's Most Wanted 60fps.mkv
General
Unique ID : 247618462225393443909218926171587853584 (0xBA4994C42B3FB17BAC6D232A9F7BBD10)
Complete name : E:\мадагаскар 1-4\Madagaskar 3 - Europe's Most Wanted 60fps.mkv
Format : Matroska
Format version : Version 4 / Version 2
File size : 3.87 GiB
Duration : 1h 33mn
Overall bit rate : 5 932 Kbps
Encoded date : UTC 2015-09-17 14:15:04
Writing application : mkvmerge v7.0.0 ('Where We Going') 64bit built on Jun 9 2014 15:16:27
Writing library : libebml v1.3.0 + libmatroska v1.4.1
Video #1
ID : 1
Format : AVC
Format/Info : Advanced Video Codec
Format profile : [email protected]
Format settings, CABAC : Yes
Format settings, ReFrames : 4 frames
Codec ID : V_MPEG4/ISO/AVC
Duration : 1h 33mn
Bit rate : 5 474 Kbps
Width : 1 024 pixels
Height : 576 pixels
Display aspect ratio : 16:9
Frame rate : 59.940 fps
Color space : YUV
Chroma subsampling : 4:2:0
Bit depth : 8 bits
Scan type : Progressive
Bits/(Pixel*Frame) : 0.155
Stream size : 3.50 GiB (90%)
Writing library : x264 core 146 r2538 121396c
Encoding settings : cabac=1 / ref=3 / deblock=1:0:0 / analyse=0x3:0x113 / me=umh / subme=11 / psy=1 / psy_rd=1.00:0.00 / mixed_ref=1 / me_range=24 / chroma_me=1 / trellis=2 / 8x8dct=1 / cqm=0 / deadzone=21,11 / fast_pskip=1 / chroma_qp_offset=-2 / threads=12 / lookahead_threads=3 / sliced_threads=0 / nr=0 / decimate=1 / interlaced=0 / bluray_compat=0 / constrained_intra=0 / bframes=16 / b_pyramid=2 / b_adapt=2 / b_bias=0 / direct=1 / weightb=1 / open_gop=0 / weightp=2 / keyint=250 / keyint_min=25 / scenecut=40 / intra_refresh=0 / rc=2pass / mbtree=0 / bitrate=5474 / ratetol=1.0 / qcomp=0.60 / qpmin=0 / qpmax=69 / qpstep=4 / cplxblur=20.0 / qblur=0.5 / ip_ratio=1.40 / pb_ratio=1.30 / aq=1:1.00
Language : English
Default : Yes
Forced : No
Audio #2
ID : 2
Format : AC-3
Format/Info : Audio Coding 3
Mode extension : CM (complete main)
Format settings, Endianness : Big
Codec ID : A_AC3
Duration : 1h 33mn
Bit rate mode : Constant
Bit rate : 448 Kbps
Channel(s) : 6 channels
Channel positions : Front: L C R, Side: L R, LFE
Sampling rate : 48.0 KHz
Bit depth : 16 bits
Compression mode : Lossy
Stream size : 299 MiB (8%)
Title : Дубляж
Language : Russian
Default : Yes
Forced : No
Text #3
ID : 3
Format : UTF-8
Codec ID : S_TEXT/UTF8
Codec ID/Info : UTF-8 Plain Text
Title : Rus
Language : Russian
Default : Yes
Forced : No
Text #4
ID : 4
Format : UTF-8
Codec ID : S_TEXT/UTF8
Codec ID/Info : UTF-8 Plain Text
Title : Rus
Language : Russian
Default : No
Forced : No
Text #5
ID : 5
Format : UTF-8
Codec ID : S_TEXT/UTF8
Codec ID/Info : UTF-8 Plain Text
Title : Eng
Language : English
Default : No
Forced : No
Text #6
ID : 6
Format : UTF-8
Codec ID : S_TEXT/UTF8
Codec ID/Info : UTF-8 Plain Text
Title : Eng
Language : English
Default : No
Forced : No
Text #7
ID : 7
Format : UTF-8
Codec ID : S_TEXT/UTF8
Codec ID/Info : UTF-8 Plain Text
Title : Eng
Language : English
Default : No
Forced : No
Text #8
ID : 8
Format : UTF-8
Codec ID : S_TEXT/UTF8
Codec ID/Info : UTF-8 Plain Text
Title : Eng
Language : English
Default : No
Forced : No
Text #9
ID : 9
Format : UTF-8
Codec ID : S_TEXT/UTF8
Codec ID/Info : UTF-8 Plain Text
Title : Ukr
Language : Ukrainian
Default : No
Forced : No
Text #10
ID : 10
Format : UTF-8
Codec ID : S_TEXT/UTF8
Codec ID/Info : UTF-8 Plain Text
Title : Ukr
Language : Ukrainian
Default : No
Forced : No
Menu
00:00:00.000 : en:Chapter 1
00:05:16.316 : en:Chapter 2
00:10:51.985 : en:Chapter 3
00:19:46.310 : en:Chapter 4
00:27:49.835 : en:Chapter 5
00:32:50.552 : en:Chapter 6
00:40:34.974 : en:Chapter 7
00:46:51.976 : en:Chapter 8
00:52:00.534 : en:Chapter 9
00:58:55.157 : en:Chapter 10
01:00:23.411 : en:Chapter 11
01:04:19.314 : en:Chapter 12
01:10:59.672 : en:Chapter 13
01:15:30.317 : en:Chapter 14
01:21:09.782 : en:Chapter 15
01:22:48.630 : en:Chapter 16
Скриншоты
pic
Madagaskar 3 - Europe's Most Wanted 60fps.mkv.torrent
Трекер: Зарегистрирован

magnet ссылка

 


Скачать .torrent

20 KB

Статус: проверено (by Cherepah в 23-Июл-18 12:08)
Зарегистрирован: 23-Июл-18 11:51
Скачан: 42 раза
Размер: 3.87 GB | 
Поблагодарили:
Скачать Мадагаскар 3 / Madagascar 3: Europe's Most Wanted (Эрик Дарнелл, Том МакГрат, Конрад Вернон) [2012, мультфильм, комедия, приключения, семейный, BDRip-AVC] [60 fps] DUB [Лицензия] торрент
 


Похожие раздачи

Текущее время: 10-Дек 16:04

Часовой пояс: GMT + 3



Вы не можете начинать темы
Вы не можете отвечать на сообщения
Вы не можете редактировать свои сообщения
Вы не можете удалять свои сообщения
Вы не можете голосовать в опросах
Вы не можете прикреплять файлы к сообщениям
Вы не можете скачивать файлы