Loading...
Error
 
Мини-чат
 

Скачать торрент (Pop, Disco) New Baccara-Call Me Up (Special Version) - 2011 [FLAC, tracks +.cue, lossless]



 
Автор Сообщение

trygg

post 19-Авг-18 11:50


New Baccara-Call Me Up (Special Version)


pic
Год издания: 2011
Страна: Germany pic
Жанр: Pop, Disco
Продолжительность: 01:18:13
Лейбл издания: DWS Records
Страна-выпуска диска: EU pic
Номер по каталогу: LTD-CD-001
Формат: FLAC
Битрейт аудио: Lossless
Тип рипа: tracks +.cue
Наличие сканов в содержимом раздачи: да

pic
Трэклист
pic
01. Call Me Up (Special DJ-Mix) (5:12)
02. Touch Me (Erotic Dance Mix) (7:06)
03. Fantasy Boy (Special Maxi Mix) (7:10)
04. Talisman (5:59)
05. Touch Me (Disconet Remix) (6:10)
06. Fantasy Boy (Duncapella Mix) (3:45)
07. A & A Special Megamix (7:56)
08. Call Me Up (Version Instrumental) (5:11)
09. Fantasy Boy (Instrumental Version) (4:08)
10. Touch Me (Instrumental Version) (4:06)
11. Call Me Up (7'' Version) (4:04)
12. Fantasy Boy (7'' Version) (3:44)
13. Touch Me (Single Version) (3:53)
14. Talisman (7'' Version) (4:08)
15. Fantasy Boy (Hot Cut Mix) (5:42)

pic
Лог создания рипа

Код:

Exact Audio Copy V0.99 prebeta 5 from 4. May 2009

Отчёт EAC об извлечении, выполненном 18. апреля 2011, 16:59

New Baccara / Call Me Up - Special Version

Дисковод: PIONEER DVD-RW  DVR-112D   Adapter: 1  ID: 0

Режим чтения                 : Достоверность
Использование точного потока : Да
Отключение кэша аудио        : Да
Использование указателей C2  : Нет

Коррекция смещения при чтении                     : 48
Способность читать области Lead-in и Lead-out     : Нет
Заполнение пропущенных сэмплов тишиной            : Да
Удаление блоков с тишиной в начале и конце        : Нет
При вычислениях CRC использовались нулевые сэмплы : Да
Интерфейс                                         : Установленный внешний ASPI-интерфейс
Обработка зазоров                                 : Добавлено к предыдущему треку

Выходной формат          : Пользовательский кодировщик
Выбранный битрейт        : 1024 kBit/s
Качество                 : Высокий
Добавление ID3-тэга      : Да
Утилита сжатия           : C:\Program Files\FLAC\flac.exe
Дополнительные параметры : -6 -V -T "ARTIST=%a" -T "TITLE=%t" -T "ALBUM=%g" -T "DATE=%y" -T "TRACKNUMBER=%n" -T "GENRE=%m" -T "COMMENT=EAC FLAC -6" %s

TOC извлечённого CD

     Трек |   Старт  | Длительность | Начальный сектор | Конечный сектор
    ---------------------------------------------------------------------
       1  |  0:00.00 |    5:12.16   |           0      |      23415
       2  |  5:12.16 |    7:05.44   |       23416      |      55334
       3  | 12:17.60 |    7:09.40   |       55335      |      87549
       4  | 19:27.25 |    5:58.72   |       87550      |     114471
       5  | 25:26.22 |    6:10.30   |      114472      |     142251
       6  | 31:36.52 |    3:45.03   |      142252      |     159129
       7  | 35:21.55 |    7:56.31   |      159130      |     194860
       8  | 43:18.11 |    5:10.44   |      194861      |     218154
       9  | 48:28.55 |    4:07.57   |      218155      |     236736
      10  | 52:36.37 |    4:05.69   |      236737      |     255180
      11  | 56:42.31 |    4:04.27   |      255181      |     273507
      12  | 60:46.58 |    3:43.63   |      273508      |     290295
      13  | 64:30.46 |    3:53.14   |      290296      |     307784
      14  | 68:23.60 |    4:07.40   |      307785      |     326349
      15  | 72:31.25 |    5:41.43   |      326350      |     351967

Трек  1

     Имя файла F:\New Baccara-Call Me Up (Special Version) (DWS Records, 2011)\01_New_Baccara-Call_Me_Up_(Special_DJ-Mix).wav

     Длина предзазора  0:00:02.00

     Пиковый уровень 95.4 %
     Качество трека 100.0 %
     CRC теста C736FB04
     CRC копии C736FB04
     Трек не обнаружен в базе AccurateRip
     Копирование... OK

Трек  2

     Имя файла F:\New Baccara-Call Me Up (Special Version) (DWS Records, 2011)\02_New_Baccara-Touch_Me_(Erotic_Dance_Mix).wav

     Длина предзазора  0:00:01.68

     Пиковый уровень 95.2 %
     Качество трека 100.0 %
     CRC теста D7115378
     CRC копии D7115378
     Трек не обнаружен в базе AccurateRip
     Копирование... OK

Трек  3

     Имя файла F:\New Baccara-Call Me Up (Special Version) (DWS Records, 2011)\03_New_Baccara-Fantasy_Boy_(Special_Maxi_Mix).wav

     Длина предзазора  0:00:01.73

     Пиковый уровень 91.8 %
     Качество трека 100.0 %
     CRC теста A27E27F8
     CRC копии A27E27F8
     Трек не обнаружен в базе AccurateRip
     Копирование... OK

Трек  4

     Имя файла F:\New Baccara-Call Me Up (Special Version) (DWS Records, 2011)\04_New_Baccara-Talisman.wav

     Длина предзазора  0:00:01.69

     Пиковый уровень 95.8 %
     Качество трека 99.9 %
     CRC теста 7FB5E54D
     CRC копии 7FB5E54D
     Трек не обнаружен в базе AccurateRip
     Копирование... OK

Трек  5

     Имя файла F:\New Baccara-Call Me Up (Special Version) (DWS Records, 2011)\05_New_Baccara-Touch_Me_(Disconet_Remix).wav

     Длина предзазора  0:00:01.67

     Пиковый уровень 95.6 %
     Качество трека 100.0 %
     CRC теста B1DE5C06
     CRC копии B1DE5C06
     Трек не обнаружен в базе AccurateRip
     Копирование... OK

Трек  6

     Имя файла F:\New Baccara-Call Me Up (Special Version) (DWS Records, 2011)\06_New_Baccara-Fantasy_Boy_(Duncapella_Mix).wav

     Длина предзазора  0:00:01.62

     Пиковый уровень 89.1 %
     Качество трека 100.0 %
     CRC теста A511A149
     CRC копии A511A149
     Трек не обнаружен в базе AccurateRip
     Копирование... OK

Трек  7

     Имя файла F:\New Baccara-Call Me Up (Special Version) (DWS Records, 2011)\07_New_Baccara-A_&_A_Special_Megamix.wav

     Длина предзазора  0:00:01.71

     Пиковый уровень 92.1 %
     Качество трека 100.0 %
     CRC теста 6B5EDE88
     CRC копии 6B5EDE88
     Трек не обнаружен в базе AccurateRip
     Копирование... OK

Трек  8

     Имя файла F:\New Baccara-Call Me Up (Special Version) (DWS Records, 2011)\08_New_Baccara-Call_Me_Up_(Version_Instrumental).wav

     Длина предзазора  0:00:01.66

     Пиковый уровень 94.5 %
     Качество трека 100.0 %
     CRC теста 9E5F6F5F
     CRC копии 9E5F6F5F
     Трек не обнаружен в базе AccurateRip
     Копирование... OK

Трек  9

     Имя файла F:\New Baccara-Call Me Up (Special Version) (DWS Records, 2011)\09_New_Baccara-Fantasy_Boy_(Instrumental_Version).wav

     Длина предзазора  0:00:01.65

     Пиковый уровень 90.6 %
     Качество трека 100.0 %
     CRC теста E603EA0C
     CRC копии E603EA0C
     Трек не обнаружен в базе AccurateRip
     Копирование... OK

Трек 10

     Имя файла F:\New Baccara-Call Me Up (Special Version) (DWS Records, 2011)\10_New_Baccara-Touch_Me_(Instrumental_Version).wav

     Длина предзазора  0:00:01.63

     Пиковый уровень 94.3 %
     Качество трека 100.0 %
     CRC теста 0B24EADD
     CRC копии 0B24EADD
     Трек не обнаружен в базе AccurateRip
     Копирование... OK

Трек 11

     Имя файла F:\New Baccara-Call Me Up (Special Version) (DWS Records, 2011)\11_New_Baccara-Call_Me_Up_(7''_Version).wav

     Длина предзазора  0:00:01.60

     Пиковый уровень 95.0 %
     Качество трека 100.0 %
     CRC теста DD2B7ED5
     CRC копии DD2B7ED5
     Трек не обнаружен в базе AccurateRip
     Копирование... OK

Трек 12

     Имя файла F:\New Baccara-Call Me Up (Special Version) (DWS Records, 2011)\12_New_Baccara-Fantasy_Boy_(7''_Version).wav

     Длина предзазора  0:00:01.67

     Пиковый уровень 92.6 %
     Качество трека 100.0 %
     CRC теста 84F64AB2
     CRC копии 84F64AB2
     Трек не обнаружен в базе AccurateRip
     Копирование... OK

Трек 13

     Имя файла F:\New Baccara-Call Me Up (Special Version) (DWS Records, 2011)\13_New_Baccara-Touch_Me_(Single_Version).wav

     Длина предзазора  0:00:01.68

     Пиковый уровень 95.5 %
     Качество трека 100.0 %
     CRC теста E2AD3458
     CRC копии E2AD3458
     Трек не обнаружен в базе AccurateRip
     Копирование... OK

Трек 14

     Имя файла F:\New Baccara-Call Me Up (Special Version) (DWS Records, 2011)\14_New_Baccara-Talisman_(7''_Version).wav

     Длина предзазора  0:00:01.60

     Пиковый уровень 96.4 %
     Качество трека 100.0 %
     CRC теста 8CBC0241
     CRC копии 8CBC0241
     Трек не обнаружен в базе AccurateRip
     Копирование... OK

Трек 15

     Имя файла F:\New Baccara-Call Me Up (Special Version) (DWS Records, 2011)\15_New_Baccara-Fantasy_Boy_(Hot_Cut_Mix).wav

     Длина предзазора  0:00:01.54

     Пиковый уровень 92.8 %
     Качество трека 100.0 %
     CRC теста 77D529D4
     CRC копии 77D529D4
     Трек не обнаружен в базе AccurateRip
     Копирование... OK

Ни одного трека нет в базе AccurateRip

Ошибок не произошло

Конец отчёта
Индексная карта (non-compilant .cue)

Код:

REM GENRE Disco
REM DATE 2011
REM DISCID D212540F
REM COMMENT "ExactAudioCopy v0.99pb5"
PERFORMER "New Baccara"
TITLE "Call Me Up - Special Version"
FILE "01_New_Baccara-Call_Me_Up_(Special_DJ-Mix).flac" WAVE
  TRACK 01 AUDIO
    TITLE "Call Me Up (Special DJ-Mix)"
    PERFORMER "New Baccara"
    INDEX 01 00:00:00
  TRACK 02 AUDIO
    TITLE "Touch Me (Erotic Dance Mix)"
    PERFORMER "New Baccara"
    INDEX 00 05:10:23
FILE "02_New_Baccara-Touch_Me_(Erotic_Dance_Mix).flac" WAVE
    INDEX 01 00:00:00
  TRACK 03 AUDIO
    TITLE "Fantasy Boy (Special Maxi Mix)"
    PERFORMER "New Baccara"
    INDEX 00 07:03:46
FILE "03_New_Baccara-Fantasy_Boy_(Special_Maxi_Mix).flac" WAVE
    INDEX 01 00:00:00
  TRACK 04 AUDIO
    TITLE "Talisman"
    PERFORMER "New Baccara"
    INDEX 00 07:07:46
FILE "04_New_Baccara-Talisman.flac" WAVE
    INDEX 01 00:00:00
  TRACK 05 AUDIO
    TITLE "Touch Me (Disconet Remix)"
    PERFORMER "New Baccara"
    INDEX 00 05:57:05
FILE "05_New_Baccara-Touch_Me_(Disconet_Remix).flac" WAVE
    INDEX 01 00:00:00
  TRACK 06 AUDIO
    TITLE "Fantasy Boy (Duncapella Mix)"
    PERFORMER "New Baccara"
    INDEX 00 06:08:43
FILE "06_New_Baccara-Fantasy_Boy_(Duncapella_Mix).flac" WAVE
    INDEX 01 00:00:00
  TRACK 07 AUDIO
    TITLE "A & A Special Megamix"
    PERFORMER "New Baccara"
    INDEX 00 03:43:07
FILE "07_New_Baccara-A_&_A_Special_Megamix.flac" WAVE
    INDEX 01 00:00:00
  TRACK 08 AUDIO
    TITLE "Call Me Up (Version Instrumental)"
    PERFORMER "New Baccara"
    INDEX 00 07:54:40
FILE "08_New_Baccara-Call_Me_Up_(Version_Instrumental).flac" WAVE
    INDEX 01 00:00:00
  TRACK 09 AUDIO
    TITLE "Fantasy Boy (Instrumental Version)"
    PERFORMER "New Baccara"
    INDEX 00 05:08:54
FILE "09_New_Baccara-Fantasy_Boy_(Instrumental_Version).flac" WAVE
    INDEX 01 00:00:00
  TRACK 10 AUDIO
    TITLE "Touch Me (Instrumental Version)"
    PERFORMER "New Baccara"
    INDEX 00 04:05:69
FILE "10_New_Baccara-Touch_Me_(Instrumental_Version).flac" WAVE
    INDEX 01 00:00:00
  TRACK 11 AUDIO
    TITLE "Call Me Up (7'' Version)"
    PERFORMER "New Baccara"
    INDEX 00 04:04:09
FILE "11_New_Baccara-Call_Me_Up_(7''_Version).flac" WAVE
    INDEX 01 00:00:00
  TRACK 12 AUDIO
    TITLE "Fantasy Boy (7'' Version)"
    PERFORMER "New Baccara"
    INDEX 00 04:02:35
FILE "12_New_Baccara-Fantasy_Boy_(7''_Version).flac" WAVE
    INDEX 01 00:00:00
  TRACK 13 AUDIO
    TITLE "Touch Me (Single Version)"
    PERFORMER "New Baccara"
    INDEX 00 03:41:70
FILE "13_New_Baccara-Touch_Me_(Single_Version).flac" WAVE
    INDEX 01 00:00:00
  TRACK 14 AUDIO
    TITLE "Talisman (7'' Version)"
    PERFORMER "New Baccara"
    INDEX 00 03:51:29
FILE "14_New_Baccara-Talisman_(7''_Version).flac" WAVE
    INDEX 01 00:00:00
  TRACK 15 AUDIO
    TITLE "Fantasy Boy (Hot Cut Mix)"
    PERFORMER "New Baccara"
    INDEX 00 04:05:61
FILE "15_New_Baccara-Fantasy_Boy_(Hot_Cut_Mix).flac" WAVE
    INDEX 01 00:00:00

pic
для ознакомления:


pic
pic

New Baccara-Call Me Up (Special Version) (DWS Records, 2011).torrent
Трекер: Зарегистрирован

magnet ссылка

 


Скачать .torrent

16 KB

Статус: проверено (by E IL o T IR i X в 19-Авг-18 13:52)
Зарегистрирован: 19-Авг-18 11:50
Скачан: 28 раз
Размер: 575 MB | 
Поблагодарили:
Скачать (Pop, Disco) New Baccara-Call Me Up (Special Version) - 2011 [FLAC, tracks +.cue, lossless] торрент
 


Похожие раздачи

Текущее время: 26-Ноя 04:26

Часовой пояс: GMT + 3



Вы не можете начинать темы
Вы не можете отвечать на сообщения
Вы не можете редактировать свои сообщения
Вы не можете удалять свои сообщения
Вы не можете голосовать в опросах
Вы не можете прикреплять файлы к сообщениям
Вы не можете скачивать файлы