Loading...
Error
 

Скачать торрент Танцы (5 Сезон / 1-14 выпуск из 20) [2018, Реалити-шоу, танцы, развлекательный, хореография, SATRip]

 
Автор Сообщение

ilyash_rekviem

post 25-Авг-18 16:51

pic
Танцы
5й сезон

pic
Информация о фильме
picГод выхода: 2018
picСтрана: Россия, Comedy Club Production, Телеканал ТНТ
picЖанр: Реалити-шоу, танцы, развлекательный, хореография
picПродолжительность: ~ 01:34:00
picСезоны / серии: 5 сезон / 1-14 серии из 20
picПеревод: Не требуется
picCубтитры: Отсутствуют
picРежиссер: Анатолий Шпульников
picВ ролях: Мигель, Татьяна Денисова (I), Егор Дружинин, Сергей Светлаков
picВедущая: Ляйсан Утяшева
О фильме
Пятый сезон станет самым необычным и интригующим - впервые в истории в нем будет сразу три наставника! Отбирать участников будут Мигель, Татьяна Денисова и вернувшийся в проект Егор Дружинин. Новый сезон соберет в себе все лучшее, что было в проекте, продолжит развивать танце-вальную культуру, искать таланты по всей стране и показывать зрителям запредельные танцы! Появление в проекте третьего наставника кардинально изменит многие аспекты шоу. Теперь за звание лучшего танцовщика страны и главный приз 3 000 000 рублей будут бороть-ся участники трех команд. А значит – после каждого концерта шоу будут покидать не по два, а по три участника. Шансы задержаться в проекте существенно снизятся – никакого време-ни на раскачку, в борьбу придется включаться с самого начала. Конкурентная борьба в этом сезоне поднимется на совершенно новый уровень. И не только между танцовщиками…
Файл
picКачество: SATRip
picФормат: AVI
picВидео кодек: Xvid
picАудио кодек: MP3
picВидео: 1648 Кбит/с, 720x400, 25.000 fps
picАудио #1: MP3, 2 ch, 192 Кбит/с, 48.0 KHz | RUS
MediaInfo
E:\Tancy.S05.2018.XviD.SATRip\Tancy.s05.e01.XviD.SATRip.25Kuzmich.avi
General
Complete name : E:\Tancy.S05.2018.XviD.SATRip\Tancy.s05.e01.XviD.SATRip.25Kuzmich.avi
Format : AVI
Format/Info : Audio Video Interleave
File size : 1.20 GiB
Duration : 1h 33mn
Overall bit rate : 1 850 Kbps
Writing application : VirtualDubMod 1.5.10.3 (build 2550/release)
Writing library : VirtualDubMod build 2550/release
Video #0
ID : 0
Format : MPEG-4 Visual
Format profile : Advanced [email protected]
Format settings, BVOP : 1
Format settings, QPel : No
Format settings, GMC : No warppoints
Format settings, Matrix : Default (MPEG)
Codec ID : XVID
Codec ID/Hint : XviD
Duration : 1h 33mn
Bit rate : 1 648 Kbps
Width : 720 pixels
Height : 400 pixels
Display aspect ratio : 16:9
Frame rate : 25.000 fps
Color space : YUV
Chroma subsampling : 4:2:0
Bit depth : 8 bits
Scan type : Progressive
Compression mode : Lossy
Bits/(Pixel*Frame) : 0.229
Stream size : 1.07 GiB (89%)
Writing library : XviD 1.2.1 (UTC 2008-12-04)
Audio #1
ID : 1
Format : MPEG Audio
Format version : Version 1
Format profile : Layer 3
Mode : Joint stereo
Codec ID : 55
Codec ID/Hint : MP3
Duration : 1h 33mn
Bit rate mode : Constant
Bit rate : 192 Kbps
Channel(s) : 2 channels
Sampling rate : 48.0 KHz
Compression mode : Lossy
Stream size : 128 MiB (10%)
Alignment : Aligned on interleaves
Interleave, duration : 40 ms (1.00 video frame)
Interleave, preload duration : 504 ms
Writing library : LAME3.99r
Encoding settings : -m j -V 4 -q 2 -lowpass 18.6 -b 192
Скриншоты
pic
Tancy.S05.2018.XviD.SATRip.torrent
 СЕРЕБРЯНАЯ РАЗДАЧА! СКАЧАННОЕ ЗАСЧИТЫВАЕТСЯ ТОЛЬКО НАПОЛОВИНУ! 
Осталось: [ 15-Ноя-18 14:21 ]
Трекер: Зарегистрирован

magnet ссылка

 


Скачать .torrent

45 KB

Статус: проверено (by ilyash_rekviem в 05-Ноя-18 14:20)
Зарегистрирован: 05-Ноя-18 14:20
Скачан: 244 раза
Размер: 17.57 GB | 
Поблагодарили:
Скачать Танцы (5 Сезон / 1-14 выпуск из 20) [2018, Реалити-шоу, танцы, развлекательный, хореография, SATRip] торрент
 


Похожие раздачи

ilyash_rekviem

post 26-Авг-18 09:28 (спустя 16 часов)

По мере выхода новых выпусков, раздача будет обновляться

ilyash_rekviem

post 01-Сен-18 18:30 (спустя 6 дней)

Добавлен 2й выпуск

ilyash_rekviem

post 09-Сен-18 10:49 (спустя 7 дней)

Добавлен 3й выпуск

ilyash_rekviem

post 15-Сен-18 18:41 (спустя 6 дней)

Добавлен 4й выпуск

ilyash_rekviem

post 22-Сен-18 21:47 (спустя 7 дней)

Добавлен 5й выпуск

ilyash_rekviem

post 30-Сен-18 16:01 (спустя 7 дней)

Добавлен 6й выпуск

ilyash_rekviem

post 06-Окт-18 22:33 (спустя 6 дней)

Добавлен 7й выпуск

Максти

post 14-Окт-18 14:29 (спустя 7 дней)

8?)

ilyash_rekviem

post 14-Окт-18 23:06 (спустя 8 часов)

Добавлен 8й выпуск

ilyash_rekviem

post 20-Окт-18 20:56 (спустя 5 дней)

Добавлен 9й выпуск

ilyash_rekviem

post 22-Окт-18 05:58 (спустя 1 день 9 часов)

Добавлен 10й выпуск

ilyash_rekviem

post 28-Окт-18 19:25 (спустя 6 дней)

Добавлены 11й и 12й выпуски

ilyash_rekviem

post 05-Ноя-18 14:21 (спустя 7 дней)

Добавлен 13й и 14й выпуски

Текущее время: 15-Ноя 13:19

Часовой пояс: GMT + 3



Вы не можете начинать темы
Вы не можете отвечать на сообщения
Вы не можете редактировать свои сообщения
Вы не можете удалять свои сообщения
Вы не можете голосовать в опросах
Вы не можете прикреплять файлы к сообщениям
Вы не можете скачивать файлы