Loading...
Error
 
Мини-чат
 

Скачать торрент (Pop) A-Teens - The ABBA Generation - 1999 [FLAC, image +.cue, lossless]



 
Автор Сообщение

trygg

post 01-Сен-18 18:59


A-Teens - The ABBA Generation


pic
Год издания: 1999
Страна: Sweden pic
Жанр: Pop
Продолжительность: 01:12:47
Лейбл издания: Stockholm Records
Страна-выпуска диска: Sweden pic
Номер по каталогу: 547 666-2
Формат: FLAC
Битрейт аудио: Lossless
Тип рипа: image +.cue
Наличие сканов в содержимом раздачи: да

pic
Трэклист
pic
pic
01. Mamma Mia (3:45)
02. Gimme! Gimme! Gimme! (A Man After Midnight) (3:56)
03. Super Trouper (3:52)
04. One Of Us (3:55)
05. Voulez-Vous (3:41)
06. S.O.S. (3:11)
07. Dancing Queen (3:53)
08. Take A Chance On Me (3:52)
09. Lay All Your Love On Me (4:03)
10. The Name Of The Game (4:20)
11. Our Last Summer (4:28)
12. Mamma Mia (Guiseppe Remix) (5:37)
13. Mamma Mia (Jam Lab Remix) (3:58)
14. Super Trouper (Super Super Remix) (9:00)
15. Super Trouper (Pinocchio Remix) (5:08)
16. Super Trouper (Extented Version) (6:05)

pic
Лог создания рипа

Код:

Exact Audio Copy V1.3 from 2. September 2016

EAC extraction logfile from 28. February 2018, 22:21

A-Teens / The ABBA Generation

Used drive  : ASUS    DRW-24D5MT   Adapter: 0  ID: 1

Read mode               : Secure
Utilize accurate stream : Yes
Defeat audio cache      : Yes
Make use of C2 pointers : No

Read offset correction                      : 6
Overread into Lead-In and Lead-Out          : No
Fill up missing offset samples with silence : Yes
Delete leading and trailing silent blocks   : No
Null samples used in CRC calculations       : Yes
Used interface                              : Installed external ASPI interface

Used output format              : User Defined Encoder
Selected bitrate                : 768 kBit/s
Quality                         : High
Add ID3 tag                     : No
Command line compressor         : C:\Program Files (x86)\Exact Audio Copy\Flac\flac.exe
Additional command line options : -8 -V -T "TITLE=%title%" -T "ARTIST=%artist%" -T "ALBUMARTIST=%albumartist%" -T "ALBUM=%albumtitle%" -T "DATE=%year%" -T "TRACKNUMBER=%tracknr%" -T "TRACKTOTAL=%numtracks%" -T "GENRE=%genre%" -T "COMMENT=%comment%" -T "PERFORMER=%albuminterpret%" -T "COMPOSER=%composer%" %source% -o %dest%

TOC of the extracted CD

     Track |   Start  |  Length  | Start sector | End sector
    ---------------------------------------------------------
        1  |  0:00.00 |  3:45.05 |         0    |    16879
        2  |  3:45.05 |  3:56.34 |     16880    |    34613
        3  |  7:41.39 |  3:52.18 |     34614    |    52031
        4  | 11:33.57 |  3:55.34 |     52032    |    69690
        5  | 15:29.16 |  3:41.29 |     69691    |    86294
        6  | 19:10.45 |  3:11.31 |     86295    |   100650
        7  | 22:22.01 |  3:52.59 |    100651    |   118109
        8  | 26:14.60 |  3:51.64 |    118110    |   135498
        9  | 30:06.49 |  4:03.34 |    135499    |   153757
       10  | 34:10.08 |  4:20.08 |    153758    |   173265
       11  | 38:30.16 |  4:28.30 |    173266    |   193395
       12  | 42:58.46 |  5:36.71 |    193396    |   218666
       13  | 48:35.42 |  3:57.67 |    218667    |   236508
       14  | 52:33.34 |  9:00.01 |    236509    |   277009
       15  | 61:33.35 |  5:07.45 |    277010    |   300079
       16  | 66:41.05 |  6:05.34 |    300080    |   327488

Range status and errors

Selected range

     Filename C:\Music\A-Teens - The ABBA Generation.wav

     Peak level 100.0 %
     Extraction speed 8.1 X
     Range quality 100.0 %
     Test CRC 6833BC0E
     Copy CRC 6833BC0E
     Copy OK

No errors occurred

AccurateRip summary

Track  1  accurately ripped (confidence 1)  [8B12C220]  (AR v1)
Track  2  accurately ripped (confidence 1)  [D11EC7A6]  (AR v1)
Track  3  accurately ripped (confidence 1)  [70D51BDE]  (AR v1)
Track  4  accurately ripped (confidence 1)  [6F353FE7]  (AR v1)
Track  5  accurately ripped (confidence 1)  [098AFB1F]  (AR v1)
Track  6  accurately ripped (confidence 1)  [B5F5F81C]  (AR v1)
Track  7  accurately ripped (confidence 1)  [0487DA71]  (AR v1)
Track  8  accurately ripped (confidence 1)  [EC85610B]  (AR v1)
Track  9  accurately ripped (confidence 1)  [7FE83DFE]  (AR v1)
Track 10  accurately ripped (confidence 1)  [BA8BA3A1]  (AR v1)
Track 11  accurately ripped (confidence 1)  [4A666765]  (AR v1)
Track 12  accurately ripped (confidence 1)  [4AE1CE94]  (AR v1)
Track 13  accurately ripped (confidence 1)  [0B7ECBE2]  (AR v1)
Track 14  accurately ripped (confidence 1)  [5A3914E9]  (AR v1)
Track 15  accurately ripped (confidence 1)  [22B720C5]  (AR v1)
Track 16  accurately ripped (confidence 1)  [12A27338]  (AR v1)

All tracks accurately ripped

End of status report
Индексная карта (non-compilant .cue)

Код:

REM GENRE Eurodance
REM DATE 1999
REM DISCID D3110E10
REM COMMENT "ExactAudioCopy v1.3"
PERFORMER "A-Teens"
TITLE "The ABBA Generation"
REM COMPOSER ""
FILE "A-Teens - The ABBA Generation.flac" WAVE
  TRACK 01 AUDIO
    TITLE "Mamma Mia"
    PERFORMER "A-Teens"
    REM COMPOSER ""
    INDEX 01 00:00:00
  TRACK 02 AUDIO
    TITLE "Gimme! Gimme! Gimme! (A Man After Midnight)"
    PERFORMER "A-Teens"
    REM COMPOSER ""
    INDEX 01 03:45:05
  TRACK 03 AUDIO
    TITLE "Super Trouper"
    PERFORMER "A-Teens"
    REM COMPOSER ""
    INDEX 01 07:41:39
  TRACK 04 AUDIO
    TITLE "One Of Us"
    PERFORMER "A-Teens"
    REM COMPOSER ""
    INDEX 01 11:33:57
  TRACK 05 AUDIO
    TITLE "Voulez-Vous"
    PERFORMER "A-Teens"
    REM COMPOSER ""
    INDEX 01 15:29:16
  TRACK 06 AUDIO
    TITLE "S.O.S."
    PERFORMER "A-Teens"
    REM COMPOSER ""
    INDEX 01 19:10:45
  TRACK 07 AUDIO
    TITLE "Dancing Queen"
    PERFORMER "A-Teens"
    REM COMPOSER ""
    INDEX 01 22:22:01
  TRACK 08 AUDIO
    TITLE "Take A Chance On Me"
    PERFORMER "A-Teens"
    REM COMPOSER ""
    INDEX 01 26:14:60
  TRACK 09 AUDIO
    TITLE "Lay All Your Love On Me"
    PERFORMER "A-Teens"
    REM COMPOSER ""
    INDEX 01 30:06:49
  TRACK 10 AUDIO
    TITLE "The Name Of The Game"
    PERFORMER "A-Teens"
    REM COMPOSER ""
    INDEX 01 34:10:08
  TRACK 11 AUDIO
    TITLE "Our Last Summer"
    PERFORMER "A-Teens"
    REM COMPOSER ""
    INDEX 01 38:30:16
  TRACK 12 AUDIO
    TITLE "Mamma Mia (Guiseppe Remix)"
    PERFORMER "A-Teens"
    REM COMPOSER ""
    INDEX 01 42:58:46
  TRACK 13 AUDIO
    TITLE "Mamma Mia (Jam Lab Remix)"
    PERFORMER "A-Teens"
    REM COMPOSER ""
    INDEX 01 48:35:42
  TRACK 14 AUDIO
    TITLE "Super Trouper (Super Super Remix)"
    PERFORMER "A-Teens"
    REM COMPOSER ""
    INDEX 01 52:33:34
  TRACK 15 AUDIO
    TITLE "Super Trouper (Pinocchio Remix)"
    PERFORMER "A-Teens"
    REM COMPOSER ""
    INDEX 01 61:33:35
  TRACK 16 AUDIO
    TITLE "Super Trouper (Extented Version)"
    PERFORMER "A-Teens"
    REM COMPOSER ""
    INDEX 01 66:41:05

pic
для ознакомления:


pic
pic

(1999) A-Teens - The ABBA Generation (CD).torrent
Трекер: Зарегистрирован

magnet ссылка

 


Скачать .torrent

13 KB

Статус: проверено (by E IL o T IR i X в 01-Сен-18 19:40)
Зарегистрирован: 01-Сен-18 18:59
Скачан: 16 раз
Размер: 553 MB | 
Поблагодарили:
Скачать (Pop) A-Teens - The ABBA Generation - 1999 [FLAC, image +.cue, lossless] торрент
 


Похожие раздачи

Текущее время: 26-Ноя 04:15

Часовой пояс: GMT + 3



Вы не можете начинать темы
Вы не можете отвечать на сообщения
Вы не можете редактировать свои сообщения
Вы не можете удалять свои сообщения
Вы не можете голосовать в опросах
Вы не можете прикреплять файлы к сообщениям
Вы не можете скачивать файлы