Loading...
Error
 

Скачать торрент Ярость / Fury (Дэвид Эйр) [2014, боевик, драма, военный, BDRip 1080p] DUB [Лицензия]

 
Автор Сообщение

Suentebueck

post 08-Сен-18 11:10

pic
Ярость / Fury

«War never ends quietly»

Год выпуска: 2014
Страна: США, Китай, Великобритания
Жанр: боевик, драма, военный
Продолжительность: 02:14:38
Перевод: Дублированный [Лицензия]
Субтитры: русские, английские
Режиссер: Дэвид Эйр

В ролях: Брэд Питт (Don «Wardaddy» Collier), Логан Лерман (Norman Ellison), Шайа ЛаБаф (Boyd «Bible» Swan), Майкл Пенья (Trini «Gordo» Garcia), Джон Бернтал (Grady «Coon-Ass» Travis), Джейсон Айзекс (Captain Waggoner), Джим Пэррак (Sergeant Binkowski), Брэд Уильям Хенке (Sergeant Davis), Кевин Вэнс (Sergeant Peterson), Завьер Сэмюэл (Lieutenant Parker), Анамария Маринка (Irma), Алисия фон Риттберг (Emma)
Описание:
Стоит апрель 1945 года, и победа над немцами уже близка: союзники уверенно продвигаются вглубь вражеской территории, и оказываемое им сопротивление становится слабее день ото дня. Это, однако, совсем не значит, что на пути к победе союзные войска не потеряют еще множество людей, и многие солдаты сознают, что смерть ждет на расстоянии вытянутой руки. Среди закаленных в бою пессимистов, каждый день ведущих ожесточенные бои во имя победы, экипаж танка, на чьем дуле намалевано слово «Ярость».

Качество: BDRip 1080p
Формат: MKV
Видео кодек: AVC
Аудио кодек: AC3
Видео: 1920x804 (2.40:1), 7160 kbps, 23,976 fps, 0,193 bpp
Аудио №1: русский / AC3 / 5.1 / 48 kHz / 640 kbps |DUB|
Аудио №2: английский / AC3 / 5.1 / 48 kHz / 448 kbps
Навигация по главам: есть
Рейтинг
МедиаИнфо
General
Unique ID : 179886852848010137979758430854907115790 (0x8754F299335D607BA6C514372E7B390E)
Complete name : D:\Я\Фильмы\Ярость (2014) BDRip 1080p.mkv
Format : Matroska
Format version : Version 2
File size : 7.75 GiB
Duration : 2 h 14 min
Overall bit rate : 8 246 kb/s
Movie name : Ярость / Fury (2014)
Encoded date : UTC 2015-02-08 22:24:03
Writing application : mkvmerge v5.8.0 ('No Sleep / Pillow') built on Sep 2 2012 15:37:04
Writing library : libebml v1.2.3 + libmatroska v1.3.0

Video
ID : 1
Format : AVC
Format/Info : Advanced Video Codec
Format profile : [email protected]
Format settings, CABAC : Yes
Format settings, ReFrames : 5 frames
Codec ID : V_MPEG4/ISO/AVC
Duration : 2 h 14 min
Bit rate : 7 160 kb/s
Width : 1 920 pixels
Height : 804 pixels
Display aspect ratio : 2.40:1
Frame rate mode : Constant
Frame rate : 23.976 (24000/1001) FPS
Color space : YUV
Chroma subsampling : 4:2:0
Bit depth : 8 bits
Scan type : Progressive
Bits/(Pixel*Frame) : 0.193
Stream size : 6.58 GiB (85%)
Title : Release by AlexKa
Writing library : x264 core 144 r2525 40bb568
Encoding settings : cabac=1 / ref=5 / deblock=1:-3:-3 / analyse=0x3:0x133 / me=umh / subme=11 / psy=1 / psy_rd=1.00:0.00 / mixed_ref=1 / me_range=32 / chroma_me=1 / trellis=2 / 8x8dct=1 / cqm=0 / deadzone=21,11 / fast_pskip=0 / chroma_qp_offset=-2 / threads=12 / lookahead_threads=2 / sliced_threads=0 / nr=0 / decimate=0 / interlaced=0 / bluray_compat=0 / constrained_intra=0 / bframes=8 / b_pyramid=2 / b_adapt=2 / b_bias=0 / direct=3 / weightb=1 / open_gop=0 / weightp=2 / keyint=240 / keyint_min=23 / scenecut=40 / intra_refresh=0 / rc=2pass / mbtree=0 / bitrate=7160 / ratetol=1.0 / qcomp=0.60 / qpmin=0 / qpmax=69 / qpstep=4 / cplxblur=20.0 / qblur=0.5 / ip_ratio=1.40 / pb_ratio=1.30 / aq=1:1.00
Language : English
Default : Yes
Forced : No

Audio #1
ID : 2
Format : AC-3
Format/Info : Audio Coding 3
Mode extension : CM (complete main)
Format settings, Endianness : Big
Codec ID : A_AC3
Duration : 2 h 14 min
Bit rate mode : Constant
Bit rate : 640 kb/s
Channel(s) : 6 channels
Channel positions : Front: L C R, Side: L R, LFE
Sampling rate : 48.0 kHz
Frame rate : 31.250 FPS (1536 spf)
Compression mode : Lossy
Stream size : 616 MiB (8%)
Title : Rus
Language : Russian
Default : Yes
Forced : No

Audio #2
ID : 3
Format : AC-3
Format/Info : Audio Coding 3
Mode extension : CM (complete main)
Format settings, Endianness : Big
Codec ID : A_AC3
Duration : 2 h 14 min
Bit rate mode : Constant
Bit rate : 448 kb/s
Channel(s) : 6 channels
Channel positions : Front: L C R, Side: L R, LFE
Sampling rate : 48.0 kHz
Frame rate : 31.250 FPS (1536 spf)
Compression mode : Lossy
Stream size : 431 MiB (5%)
Title : Eng
Language : English
Default : No
Forced : No

Text #1
ID : 4
Format : UTF-8
Codec ID : S_TEXT/UTF8
Codec ID/Info : UTF-8 Plain Text
Title : Rus forced
Language : Russian
Default : Yes
Forced : Yes

Text #2
ID : 5
Format : UTF-8
Codec ID : S_TEXT/UTF8
Codec ID/Info : UTF-8 Plain Text
Title : Rus
Language : Russian
Default : No
Forced : No

Text #3
ID : 6
Format : UTF-8
Codec ID : S_TEXT/UTF8
Codec ID/Info : UTF-8 Plain Text
Title : Eng
Language : English
Default : No
Forced : No

Menu
00:00:00.000 : :Chapter 01
00:07:58.227 : :Chapter 02
00:20:24.681 : :Chapter 03
00:26:38.930 : :Chapter 04
00:37:26.035 : :Chapter 05
00:43:24.059 : :Chapter 06
00:51:59.407 : :Chapter 07
01:01:20.301 : :Chapter 08
01:13:46.547 : :Chapter 09
01:18:29.705 : :Chapter 10
01:26:21.801 : :Chapter 11
01:29:50.426 : :Chapter 12
01:35:39.191 : :Chapter 13
01:48:12.110 : :Chapter 14
01:57:49.979 : :Chapter 15
02:00:41.609 : :Chapter 16
Скриншоты
(2014) BDRip 1080p.mkv.torrent
 СЕРЕБРЯНАЯ РАЗДАЧА! СКАЧАННОЕ ЗАСЧИТЫВАЕТСЯ ТОЛЬКО НАПОЛОВИНУ! 
Вечный
Трекер: Зарегистрирован

magnet ссылка

 


Скачать .torrent

20 KB

Статус: проверено (by Snowden в 08-Сен-18 11:15)
Зарегистрирован: 08-Сен-18 11:10
Скачан: 72 раза
Размер: 7.75 GB | 
Поблагодарили:
Скачать Ярость / Fury (Дэвид Эйр) [2014, боевик, драма, военный, BDRip 1080p] DUB [Лицензия] торрент
 


Похожие раздачи

Bassk49

post 08-Сен-18 11:25 (спустя 15 минут)

Если вторая мировая, то только наше кино, а не это...

post 08-Сен-18 11:44 (спустя 18 минут)

Топик был перенесен из форума Боевик в форум Фильмы


Snowden
 

FrontalSS

post 09-Сен-18 02:54 (спустя 15 часов)

Bassk49
иди смотри сталинграды и прочую ересь от нашего кино

shpackoleg

post 27-Ноя-18 18:48 (спустя 2 месяца 18 дней)

шикарный фильм

Текущее время: 15-Дек 08:36

Часовой пояс: GMT + 3



Вы не можете начинать темы
Вы не можете отвечать на сообщения
Вы не можете редактировать свои сообщения
Вы не можете удалять свои сообщения
Вы не можете голосовать в опросах
Вы не можете прикреплять файлы к сообщениям
Вы не можете скачивать файлы