Loading...
Error
 

Скачать торрент Полный расколбас / Sausage Party (Грег Тирнан, Конрад Вернон) [2016 г., мультфильм, фэнтези, комедия, приключения, BDRip 720p] [60 fps] DUB | Лицензия

 
Автор Сообщение

ilyash_rekviem

post 26-Сен-18 23:42

Полный расколбас / Sausage Party

«Стоять до конца!»

pic
Информация о фильме
picГод выхода: 2016
picСтрана: США
picЖанр: мультфильм, фэнтези, комедия, приключения
picПродолжительность: 01:28:45
picПеревод: Дублированный | Лицензия
picCубтитры: Русские, Английские
picРежиссер: Грег Тирнан, Конрад Вернон
picРоли озвучивали: Алистэр Эбелл, Айрис Апатоу, Стефани Бирд, Майкл Сера, Йен Джеймс Корлетт, Майкл Дэйнджерфилд, Брайан Добсон, Майкл Добсон, Джеймс Франко, Билл Хейдер
О фильме
Первая анимационная комедия для взрослых о невероятных приключениях еды из супермаркета. Съедобным друзьям предстоит получить ответ на главный вопрос: есть ли жизнь за стенами супермаркета, и что же происходит с продуктами после того, как они попадают к людям домой?

Файл
picКачество: BDRip 720p / 60 FPS
picФормат: MKV
picВидео кодек: H.264
picАудио кодек: AC3
picВидео: 1280 x 690 | 59.940 fps | 9 613 Kbps
picАудио #1: AC3 | 5.1 | 48 kHz | 640 kbps | 16 bit | Дубляж - Лицензия [RUS]
picАудио #2: AC3 | 5.1 | 48 kHz | 640 kbps | 16 bit - Оригинал [ENG]
MediaInfo

Код:

F:\Polnyi Raskolbas (2016) BDRip 720p_60 fps.mkv
  General
    Unique ID : 209017090123478782859893958830869950678 (0x9D3F3A2EBE56920E8B7DA71D4D1FB0D6)
    Complete name : F:\Polnyi Raskolbas (2016) BDRip 720p_60 fps.mkv
    Format : Matroska
    Format version : Version 4 / Version 2
    File size : 6.89 GiB
    Duration : 1h 28mn
    Overall bit rate mode : Variable
    Overall bit rate : 11.1 Mbps
    Movie name : Полный расколбас / Sausage Party (2016) BDRip 720p | 60 fps
    Encoded date : UTC 2016-11-07 15:20:51
    Writing application : mkvmerge v7.6.0 ('Garden of Dreams') 32bit built on Feb  8 2015 12:51:39
    Writing library : libebml v1.3.1 + libmatroska v1.4.2
    DURATION : 01:26:03.166000000
    NUMBER_OF_FRAMES : 1457
    NUMBER_OF_BYTES : 55128
    _STATISTICS_WRITING_APP : mkvmerge v7.6.0 ('Garden of Dreams') 32bit built on Feb  8 2015 12:51:39
    _STATISTICS_WRITING_DATE_UTC : 2016-11-07 15:20:51
    _STATISTICS_TAGS : BPS DURATION NUMBER_OF_FRAMES NUMBER_OF_BYTES
    Attachment : Yes
  Video #1
    ID : 1
    Format : AVC
    Format/Info : Advanced Video Codec
    Format profile : [email protected]
    Format settings, CABAC : Yes
    Format settings, ReFrames : 3 frames
    Format settings, GOP : M=3, N=72
    Codec ID : V_MPEG4/ISO/AVC
    Duration : 1h 28mn
    Bit rate mode : Variable
    Bit rate : 9 613 Kbps
    Maximum bit rate : 10 000 Kbps
    Width : 1 280 pixels
    Height : 690 pixels
    Display aspect ratio : 1.85:1
    Frame rate : 59.940 fps
    Standard : PAL
    Color space : YUV
    Chroma subsampling : 4:2:0
    Bit depth : 8 bits
    Scan type : Progressive
    Bits/(Pixel*Frame) : 0.182
    Stream size : 5.96 GiB (86%)
    Language : English
    Default : Yes
    Forced : No
    Color primaries : BT.709-5, BT.1361, IEC 61966-2-4, SMPTE RP177
    Transfer characteristics : BT.709-5, BT.1361
    Matrix coefficients : BT.709-5, BT.1361, IEC 61966-2-4 709, SMPTE RP177
  Audio #2
    ID : 2
    Format : AC-3
    Format/Info : Audio Coding 3
    Mode extension : CM (complete main)
    Format settings, Endianness : Big
    Codec ID : A_AC3
    Duration : 1h 28mn
    Bit rate mode : Constant
    Bit rate : 640 Kbps
    Channel(s) : 6 channels
    Channel positions : Front: L C R, Side: L R, LFE
    Sampling rate : 48.0 KHz
    Bit depth : 16 bits
    Compression mode : Lossy
    Stream size : 406 MiB (6%)
    Title : Дубляж
    Language : Russian
    Default : Yes
    Forced : No
  Audio #3
    ID : 3
    Format : AC-3
    Format/Info : Audio Coding 3
    Mode extension : CM (complete main)
    Format settings, Endianness : Big
    Codec ID : A_AC3
    Duration : 1h 28mn
    Bit rate mode : Constant
    Bit rate : 640 Kbps
    Channel(s) : 6 channels
    Channel positions : Front: L C R, Side: L R, LFE
    Sampling rate : 48.0 KHz
    Bit depth : 16 bits
    Compression mode : Lossy
    Stream size : 406 MiB (6%)
    Title : Original
    Language : English
    Default : No
    Forced : No
  Text #4
    ID : 4
    Format : UTF-8
    Codec ID : S_TEXT/UTF8
    Codec ID/Info : UTF-8 Plain Text
    Title : Forced
    Language : Russian
    Default : Yes
    Forced : No
  Text #5
    ID : 5
    Format : UTF-8
    Codec ID : S_TEXT/UTF8
    Codec ID/Info : UTF-8 Plain Text
    Title : Full
    Language : Russian
    Default : No
    Forced : No
  Text #6
    ID : 6
    Format : UTF-8
    Codec ID : S_TEXT/UTF8
    Codec ID/Info : UTF-8 Plain Text
    Title : Full
    Language : English
    Default : No
    Forced : No
  Menu
    00:00:00.000 : en:00:00:00.000
    00:04:24.264 : en:00:04:24.264
    00:10:19.118 : en:00:10:19.118
    00:15:27.844 : en:00:15:27.844
    00:19:32.171 : en:00:19:32.171
    00:24:53.701 : en:00:24:53.701
    00:29:32.938 : en:00:29:32.938
    00:35:44.142 : en:00:35:44.142
    00:41:55.263 : en:00:41:55.263
    00:48:18.521 : en:00:48:18.521
    00:54:45.908 : en:00:54:45.908
    00:59:54.508 : en:00:59:54.508
    01:03:47.073 : en:01:03:47.073
    01:08:01.286 : en:01:08:01.286
    01:11:55.811 : en:01:11:55.811
    01:16:03.809 : en:01:16:03.809
Скриншоты
pic
Polnyi Raskolbas (2016) BDRip 720p_60 fps.mkv.torrent
Трекер: Зарегистрирован

magnet ссылка

 


Скачать .torrent

18 KB

Статус: проверено (by Snowden в 27-Сен-18 03:07)
Зарегистрирован: 26-Сен-18 23:42
Скачан: 26 раз
Размер: 6.89 GB | 
Поблагодарили:
Скачать Полный расколбас / Sausage Party (Грег Тирнан, Конрад Вернон) [2016 г., мультфильм, фэнтези, комедия, приключения, BDRip 720p] [60 fps] DUB | Лицензия торрент
 


Похожие раздачи

azzmo3

post 27-Сен-18 00:19 (спустя 37 минут)

не алтернатива? смотрел с обычным переводом понравилось , думаю с другим будет шикардос...

ilyash_rekviem

post 27-Сен-18 00:25 (спустя 5 минут)

azzmo3
нет, перевод - лицензия

ikar666

post 27-Сен-18 00:36 (спустя 11 минут)

Нормальный такой мульт, смотрел его было очень весело smoke

GAFULA

post 27-Сен-18 06:41 (спустя 6 часов)

Спасибо огромное. Давно мечтал посмотреть

Текущее время: 16-Дек 00:49

Часовой пояс: GMT + 3



Вы не можете начинать темы
Вы не можете отвечать на сообщения
Вы не можете редактировать свои сообщения
Вы не можете удалять свои сообщения
Вы не можете голосовать в опросах
Вы не можете прикреплять файлы к сообщениям
Вы не можете скачивать файлы