Loading...
Error
 

Скачать торрент Южный парк / South Park (22 Сезон / 1 - 9 Серия из 10) (Трей Паркер, Эрик Стоф, Мэтт Стоун) [2018, Мультсериал для взрослых, чёрный юмор, сатира, пародия, HDTV 720p ] [L0cDoG]

 
Автор Сообщение

TRIAX2009

post 04-Окт-18 16:10

pic
Южный парк / South Park

Год выпуска: 2018
Страна: США
Жанр: Мультсериал для взрослых, чёрный юмор, сатира, пародия
Продолжительность: 00:22:00
Сезоны / серии: 22 сезон / 1 - 9 серия из 10
Перевод: Профессиональный (одноголосый, закадровый [L0cDoG]
Субтитры: Отсутствуют
В ролях: Трей Паркер, Мэтт Стоун, Мона Маршалл, Айзек Хейз, Эйприл Стюарт, Элиза Шнайдер, Мэри Кэй Бергман, Эдриан Бирд, Дженнифер Хауэлл, Кайл Маккаллок и др.
Режиссёр: Трей Паркер, Эрик Стоф, Мэтт Стоун
Описание: Южный Парк / South Park — американский мультсериал, созданный Мэттом Стоуном и Треем Паркером. Иногда название переводится также как «Саут-Парк» или «Саус-Парк». Выпускается кабельным телеканалом Comedy Central с 1997 года. Основу сюжета составляют приключения четырёх мальчиков и их друзей, живущих в маленьком городке Саут-Парк, штат Колорадо. Сериал высмеивает недостатки американской культуры и текущие мировые события, а также подвергает критике множество глубоких убеждений и табу посредством пародии и чёрного юмора. «Южный Парк» выходит поздно вечером и позиционируется как мультфильм для взрослых .
pic

Качество: HDTV 720p
Формат: MKV
Видео кодек: AVC
Аудио кодек: AC3
Видео: AVC, 1280x718 (16:9), 1311 kbps (0.060 b/px), 23.976 fps
Аудио#1: AC3, 192 kbps (CBR), 48.0 KHz (16 bits), 2 ch, Russian
Аудио#2: AC3, 192 kbps (CBR), 48.0 KHz (16 bits), 2 ch, English
MediaInfo

Код:

General
Unique ID                                : 191412566529328385662701851708173858719 (0x9000B8280C4D0440931408D2D1EC379F)
Complete name                            : E:\мультфильмы\South Park. Season 22 (HDTVRip l 720p l L0cDoG)\South.Park.S22E01.720p.Rus.Eng.L0cDoG.mkv
Format                                   : Matroska
Format version                           : Version 2
File size                                : 269 MiB
Duration                                 : 21mn 43s
Overall bit rate                         : 1 730 Kbps
Encoded date                             : UTC 2018-09-27 10:49:00
Writing application                      : mkvmerge v7.8.0 ('River Man') 32bit built on Apr  3 2015 12:11:22
Writing library                          : libebml v1.3.1 + libmatroska v1.4.2

Video
ID                                       : 1
Format                                   : AVC
Format/Info                              : Advanced Video Codec
Format profile                           : [email protected]
Format settings, CABAC                   : Yes
Format settings, ReFrames                : 5 frames
Codec ID                                 : V_MPEG4/ISO/AVC
Duration                                 : 21mn 43s
Bit rate                                 : 1 311 Kbps
Width                                    : 1 280 pixels
Height                                   : 718 pixels
Display aspect ratio                     : 16:9
Frame rate mode                          : Constant
Frame rate                               : 23.976 fps
Color space                              : YUV
Chroma subsampling                       : 4:2:0
Bit depth                                : 8 bits
Scan type                                : Progressive
Bits/(Pixel*Frame)                       : 0.060
Stream size                              : 204 MiB (76%)
Writing library                          : x264 core 155 r2901 7d0ff22
Encoding settings                        : cabac=1 / ref=5 / deblock=1:0:0 / analyse=0x3:0x113 / me=hex / subme=8 / psy=1 / psy_rd=1.00:0.00 / mixed_ref=1 / me_range=16 / chroma_me=1 / trellis=2 / 8x8dct=1 / cqm=0 / deadzone=21,11 / fast_pskip=1 / chroma_qp_offset=-2 / threads=22 / lookahead_threads=3 / sliced_threads=0 / nr=0 / decimate=1 / interlaced=0 / bluray_compat=0 / constrained_intra=0 / bframes=3 / b_pyramid=2 / b_adapt=1 / b_bias=0 / direct=3 / weightb=1 / open_gop=0 / weightp=2 / keyint=250 / keyint_min=23 / scenecut=40 / intra_refresh=0 / rc_lookahead=50 / rc=crf / mbtree=1 / crf=18.0 / qcomp=0.60 / qpmin=0 / qpmax=69 / qpstep=4 / ip_ratio=1.40 / aq=1:1.00
Language                                 : English
Default                                  : Yes
Forced                                   : No
Matrix coefficients                      : BT.709

Audio #1
ID                                       : 2
Format                                   : AC-3
Format/Info                              : Audio Coding 3
Mode extension                           : CM (complete main)
Format settings, Endianness              : Big
Codec ID                                 : A_AC3
Duration                                 : 21mn 43s
Bit rate mode                            : Constant
Bit rate                                 : 192 Kbps
Channel(s)                               : 2 channels
Channel positions                        : Front: L R
Sampling rate                            : 48.0 KHz
Bit depth                                : 16 bits
Compression mode                         : Lossy
Stream size                              : 29.8 MiB (11%)
Title                                    : L0cDoG
Language                                 : Russian
Default                                  : Yes
Forced                                   : No

Audio #2
ID                                       : 3
Format                                   : AC-3
Format/Info                              : Audio Coding 3
Mode extension                           : CM (complete main)
Format settings, Endianness              : Big
Codec ID                                 : A_AC3
Duration                                 : 21mn 43s
Bit rate mode                            : Constant
Bit rate                                 : 192 Kbps
Channel(s)                               : 2 channels
Channel positions                        : Front: L R
Sampling rate                            : 48.0 KHz
Bit depth                                : 16 bits
Compression mode                         : Lossy
Stream size                              : 29.8 MiB (11%)
Language                                 : English
Default                                  : No
Forced                                   : No
Скриншоты
Раздача ведётся путём добавления новых серий
Внимание! Раздача ведётся путём добавления новых серий; при каждом добавлении создаётся новый торрент.
Чтобы начать докачку новой серии, пользователям необходимо сделать следующее:
1. Остановить скачивание;
2. Удалить старый торрент у себя из клиента (старые серии удалять не надо);
3. Скачать новый торрент и запустить его у себя в клиенте вместо старого, при этом указать клиенту путь в старую папку куда и должно происходить скачивание новых серий. Ваш клиент при этом должен произвести хеширование (проверку) старой папки и будет докачивать только те серии, которых у вас ещё нет. Старые серии при этом не удаляются, а продолжают раздаваться! Eсли вы уже удалили старые серии, то предотвратить повторную закачку старых серий можно, отжав галочку в соответствующих местах при запуске нового торрента.
South Park. Season 22 (HDTVRip l 720p l L0cDoG).torrent
Трекер: Зарегистрирован

magnet ссылка

 


Скачать .torrent

17 KB

Статус: проверено (by Cherepah в 07-Дек-18 12:54)
Зарегистрирован: 07-Дек-18 12:45
Скачан: 724 раза
Размер: 3.17 GB | 
Поблагодарили:
Скачать Южный парк / South Park (22 Сезон / 1 - 9 Серия из 10) (Трей Паркер, Эрик Стоф, Мэтт Стоун) [2018, Мультсериал для взрослых, чёрный юмор, сатира, пародия, HDTV 720p ] [L0cDoG] торрент
 


Похожие раздачи

monaco88

post 04-Окт-18 19:45 (спустя 3 часа)

Щикарно!

TRIAX2009

post 12-Окт-18 14:19 (спустя 7 дней)

добавлена 3 серия .

TRIAX2009

post 19-Окт-18 12:25 (спустя 6 дней)

добавлена 4 серия .

TRIAX2009

post 02-Ноя-18 13:30 (спустя 14 дней)

добавлена 5 серия .

skvazn01

post 02-Ноя-18 13:47 (спустя 16 минут)

1080 есть где?

TRIAX2009

post 11-Ноя-18 13:09 (спустя 8 дней)

добавлена 6 серия .

TRIAX2009

post 16-Ноя-18 15:47 (спустя 5 дней)

добавлена 7 серия .

TRIAX2009

post 02-Дек-18 13:35 (спустя 15 дней)

добавлена 8 серия .

TRIAX2009

post 07-Дек-18 12:45 (спустя 4 дня)

добавлена 9 серия .

Текущее время: 10-Дек 16:07

Часовой пояс: GMT + 3



Вы не можете начинать темы
Вы не можете отвечать на сообщения
Вы не можете редактировать свои сообщения
Вы не можете удалять свои сообщения
Вы не можете голосовать в опросах
Вы не можете прикреплять файлы к сообщениям
Вы не можете скачивать файлы