Loading...
Error
 

Скачать торрент Кунг-фу Панда 3 / Kung Fu Panda 3 (Алессандро Карлони, Дженнифер Ю) [2016 г., мультфильм, боевик, комедия, приключения, семейный, BDRip 720p] [60 fps] DUB | iTunes

 
Автор Сообщение

ilyash_rekviem

post 09-Окт-18 21:07

Кунг-фу Панда 3 / Kung Fu Panda 3

«Притяженья больше нет»

pic
Информация о фильме
picГод выхода: 2016
picСтрана: США, Китай
picЖанр: мультфильм, боевик, комедия, приключения, семейный
picПродолжительность: 01:34:56
picПеревод: Дублированный | iTunes
picCубтитры: Русские, английские
picРежиссер: Алессандро Карлони, Дженнифер Ю
picРоли озвучивали: Джек Блэк, Брайан Крэнстон, Дастин Хоффман, Анджелина Джоли, Дж.К. Симмонс, Джеки Чан, Сет Роген, Люси Лью, Дэвид Кросс, Кейт Хадсон, Джеймс Хонг, Рэндолл Дак Ким, Стил Гэнон, Лайам Найт, Уэйн Найт, Эл Рокер, Уилли Гайст, Фред Татаскьор, Пакс Джоли-Питт, Майк Митчелл
О фильме
Воссоединившись со своим давно потерянным отцом, По отправляется в тайный рай для панд, где его ожидает встреча с множеством веселых сородичей. Однако вскоре злодей Кай начинает зачистку — он уничтожает кунг-фу мастеров по всему Китаю.

По предстоит сделать невозможное — обучить боевому искусству деревню, полную его веселых, неуклюжих собратьев, и тем самым превратить их в отряд кунг-фу панд.


Файл
picКачество: BDRip 720p / 60 FPS
picФормат: MKV
picВидео кодек: AVC
picАудио кодек: AC3
picВидео: 1280 x 544 (2.35:1) | 59.940 fps | ~8.0 Мбит/сек
picАудио #1: AC3 | 5.1 | 48 kHz | 384 kbps | 16 bit | Дубляж iTunes [RUS]
picАудио #2: AC3 | 5.1 | 48 kHz | 448 kbps | 16 bit | Оригинал [ENG]
MediaInfo

Код:

D:\Kung Fu Panda 3 (2016) BDRip 720p_60 fps.mkv
  General
    Unique ID : 242974315629176464500376374182147239259 (0xB6CB26A929BADFB086266946FED3AD5B)
    Complete name : D:\Kung Fu Panda 3 (2016) BDRip 720p_60 fps.mkv
    Format : Matroska
    Format version : Version 4 / Version 2
    File size : 5.86 GiB
    Duration : 1h 34mn
    Overall bit rate : 8 834 Kbps
    Movie name : Кунг-фу Панда 3 / Kung Fu Panda 3 (2016) BDRip 720p | 60 fps
    Encoded date : UTC 2016-06-16 01:17:36
    Writing application : mkvmerge v7.6.0 ('Garden of Dreams') 32bit built on Feb  8 2015 12:51:39
    Writing library : libebml v1.3.1 + libmatroska v1.4.2
    DURATION : 01:29:27.158000000
    NUMBER_OF_FRAMES : 1466
    NUMBER_OF_BYTES : 40099
    _STATISTICS_WRITING_APP : mkvmerge v7.6.0 ('Garden of Dreams') 32bit built on Feb  8 2015 12:51:39
    _STATISTICS_WRITING_DATE_UTC : 2016-06-16 01:17:36
    _STATISTICS_TAGS : BPS DURATION NUMBER_OF_FRAMES NUMBER_OF_BYTES
    Attachment : Yes
  Video #1
    ID : 1
    Format : AVC
    Format/Info : Advanced Video Codec
    Format profile : [email protected]
    Format settings, CABAC : Yes
    Format settings, ReFrames : 5 frames
    Codec ID : V_MPEG4/ISO/AVC
    Duration : 1h 34mn
    Bit rate : 7 999 Kbps
    Width : 1 280 pixels
    Height : 544 pixels
    Display aspect ratio : 2.35:1
    Frame rate : 59.940 fps
    Color space : YUV
    Chroma subsampling : 4:2:0
    Bit depth : 8 bits
    Scan type : Progressive
    Bits/(Pixel*Frame) : 0.192
    Stream size : 5.19 GiB (89%)
    Writing library : x264 core 148 r2638 7599210
    Encoding settings : cabac=1 / ref=5 / deblock=1:-2:-2 / analyse=0x3:0x113 / me=umh / subme=8 / psy=1 / psy_rd=1.00:0.25 / mixed_ref=1 / me_range=32 / chroma_me=1 / trellis=1 / 8x8dct=1 / cqm=0 / deadzone=6,6 / fast_pskip=1 / chroma_qp_offset=-4 / threads=12 / lookahead_threads=2 / sliced_threads=0 / nr=0 / decimate=0 / interlaced=0 / bluray_compat=0 / constrained_intra=0 / bframes=3 / b_pyramid=2 / b_adapt=2 / b_bias=0 / direct=3 / weightb=1 / open_gop=0 / weightp=2 / keyint=599 / keyint_min=59 / scenecut=40 / intra_refresh=0 / rc_lookahead=50 / rc=2pass / mbtree=1 / bitrate=7999 / ratetol=1.0 / qcomp=0.80 / qpmin=0 / qpmax=69 / qpstep=4 / cplxblur=20.0 / qblur=0.5 / vbv_maxrate=62500 / vbv_bufsize=78125 / nal_hrd=none / filler=0 / ip_ratio=1.10 / aq=1:0.50
    Default : Yes
    Forced : No
  Audio #2
    ID : 2
    Format : AC-3
    Format/Info : Audio Coding 3
    Mode extension : CM (complete main)
    Format settings, Endianness : Big
    Codec ID : A_AC3
    Duration : 1h 34mn
    Bit rate mode : Constant
    Bit rate : 384 Kbps
    Channel(s) : 6 channels
    Channel positions : Front: L C R, Side: L R, LFE
    Sampling rate : 48.0 KHz
    Bit depth : 16 bits
    Compression mode : Lossy
    Stream size : 261 MiB (4%)
    Title : Дубляж
    Language : Russian
    Default : Yes
    Forced : No
  Audio #3
    ID : 3
    Format : AC-3
    Format/Info : Audio Coding 3
    Mode extension : CM (complete main)
    Format settings, Endianness : Big
    Codec ID : A_AC3
    Duration : 1h 34mn
    Bit rate mode : Constant
    Bit rate : 448 Kbps
    Channel(s) : 6 channels
    Channel positions : Front: L C R, Side: L R, LFE
    Sampling rate : 48.0 KHz
    Bit depth : 16 bits
    Compression mode : Lossy
    Stream size : 304 MiB (5%)
    Title : eng
    Language : English
    Default : No
    Forced : No
  Text #4
    ID : 4
    Format : UTF-8
    Codec ID : S_TEXT/UTF8
    Codec ID/Info : UTF-8 Plain Text
    Language : Russian
    Default : No
    Forced : No
  Text #5
    ID : 5
    Format : UTF-8
    Codec ID : S_TEXT/UTF8
    Codec ID/Info : UTF-8 Plain Text
    Language : English
    Default : No
    Forced : No
  Menu
    00:00:00.000 : en:Chapter 1
    00:05:21.780 : en:Chapter 2
    00:08:10.240 : en:Chapter 3
    00:10:00.016 : en:Chapter 4
    00:12:26.037 : en:Chapter 5
    00:15:24.215 : en:Chapter 6
    00:19:08.230 : en:Chapter 7
    00:24:39.395 : en:Chapter 8
    00:30:17.607 : en:Chapter 9
    00:33:53.990 : en:Chapter 10
    00:36:18.259 : en:Chapter 11
    00:39:55.643 : en:Chapter 12
    00:43:32.652 : en:Chapter 13
    00:46:45.845 : en:Chapter 14
    00:51:41.181 : en:Chapter 15
    00:56:04.611 : en:Chapter 16
    00:59:48.168 : en:Chapter 17
    01:02:11.353 : en:Chapter 18
    01:05:26.965 : en:Chapter 19
    01:10:16.838 : en:Chapter 20
    01:14:06.901 : en:Chapter 21
    01:17:06.580 : en:Chapter 22
    01:20:34.788 : en:Chapter 23
    01:24:21.181 : en:Chapter 24
Скриншоты
pic
© Оформление by ilyash_rekviem rustoka.com
Kung Fu Panda 3 (2016) BDRip 720p_60 fps.mkv.torrent
 СЕРЕБРЯНАЯ РАЗДАЧА! СКАЧАННОЕ ЗАСЧИТЫВАЕТСЯ ТОЛЬКО НАПОЛОВИНУ! 
Вечный
Трекер: Зарегистрирован

magnet ссылка

 


Скачать .torrent

15 KB

Статус: проверено (by Cherepah в 09-Окт-18 22:15)
Зарегистрирован: 09-Окт-18 21:07
Скачан: 25 раз
Размер: 5.86 GB | 
Поблагодарили:
Скачать Кунг-фу Панда 3 / Kung Fu Panda 3 (Алессандро Карлони, Дженнифер Ю) [2016 г., мультфильм, боевик, комедия, приключения, семейный, BDRip 720p] [60 fps] DUB | iTunes торрент
 


Похожие раздачи

Текущее время: 15-Ноя 21:45

Часовой пояс: GMT + 3



Вы не можете начинать темы
Вы не можете отвечать на сообщения
Вы не можете редактировать свои сообщения
Вы не можете удалять свои сообщения
Вы не можете голосовать в опросах
Вы не можете прикреплять файлы к сообщениям
Вы не можете скачивать файлы