Loading...
Error
 

Скачать торрент Прокол / Puncture (Адам Кассен , Марк Кассен ) [2011, драма, биография, BDRip 1080p] [Кинопоказ] [den904]

 
Автор Сообщение

Suentebueck

post 04-Ноя-18 22:19

pic
Прокол / Puncture

«Madman. Genius. Playboy. Friend. Fool. Lawyer»

Год выпуска: 2011
Страна: США
Жанр: драма, биография
Продолжительность: 01:39:44
Перевод №1: Профессиональный (многоголосый, закадровый) | Кинопоказ
Перевод №2: Авторский (одноголосый, закадровый) | den904
Субтитры: Английские, немецкие, французские, испанские, португальские, итальянские, голландские, шведские, норвежские, иврит

Режиссер: Адам Кассен, Марк Кассен

В ролях: Крис Эванс (Mike Weiss), Марк Кассен (Paul Danziger), Маршалл Белл (Jeffrey Dancort), Бретт Каллен (Nathaniel Price), Джесси Л. Мартин (Daryl King), Винесса Шоу (Nurse Vicky Rogers), Роксанна Хоуп (Sylvia), Майкл Бин (Red), Кейт Бёртон (Senator O'Reilly), Эринн Эллисон (Kim Danziger), Тесс Паркер (Jaime Weiss), Джастин Андерсон (Skateboard Kid)

Описание:
Молодой адвокат, которому из-за проблем с наркозависимостью приходится бороться с собственными демонами, подает в суд на главу медицинской промышленности.

Качество: BDRip 1080p
Формат: MKV
Видео кодек: AVC
Аудио кодек: AC3, DTS
Видео: 1920x800 (2.40:1), 9479 kbps, 23,976 fps, 0,257 bpp
Аудио №1: русский / AC3 / 2.0 / 48 kHz / 192 kbps |Кинопоказ|
Аудио №2: русский / AC3 / 5.1 / 48 kHz / 384 kbps |den904|
Аудио №3: английский / DTS / 5.1 / 48 kHz / 1509 kbps
Навигация по главам: есть
Рейтинг
МедиаИнфо
General
Unique ID : 215252537946214312351413960341380300486 (0xA1F0217EF7476377A81D6C94B62E7EC6)
Complete name : D:\Я\Фильмы\Puncture.2011.BDRip.(1080p).mkv
Format : Matroska
Format version : Version 4 / Version 2
File size : 8.06 GiB
Duration : 1 h 39 min
Overall bit rate : 11.6 Mb/s
Movie name : Puncture (2011)
Encoded date : UTC 2018-06-23 09:22:22
Writing application : mkvmerge v6.9.1 ('Blue Panther') 64bit built on Apr 18 2014 18:23:38
Writing library : libebml v1.3.0 + libmatroska v1.4.1

Video
ID : 1
Format : AVC
Format/Info : Advanced Video Codec
Format profile : [email protected]
Format settings, CABAC : Yes
Format settings, ReFrames : 5 frames
Codec ID : V_MPEG4/ISO/AVC
Duration : 1 h 39 min
Bit rate : 9 479 kb/s
Width : 1 920 pixels
Height : 800 pixels
Display aspect ratio : 2.40:1
Frame rate mode : Constant
Frame rate : 23.976 (24000/1001) FPS
Color space : YUV
Chroma subsampling : 4:2:0
Bit depth : 8 bits
Scan type : Progressive
Bits/(Pixel*Frame) : 0.257
Stream size : 6.44 GiB (80%)
Title : Puncture (2011)
Writing library : x264 core 119 r2106 07efeb4
Encoding settings : cabac=1 / ref=5 / deblock=1:0:0 / analyse=0x3:0x113 / me=umh / subme=7 / psy=1 / psy_rd=1.00:0.00 / mixed_ref=1 / me_range=16 / chroma_me=1 / trellis=1 / 8x8dct=1 / cqm=0 / deadzone=21,11 / fast_pskip=0 / chroma_qp_offset=-2 / threads=12 / sliced_threads=0 / nr=0 / decimate=1 / interlaced=0 / bluray_compat=0 / constrained_intra=0 / bframes=3 / b_pyramid=2 / b_adapt=1 / b_bias=0 / direct=1 / weightb=1 / open_gop=0 / weightp=2 / keyint=250 / keyint_min=23 / scenecut=40 / intra_refresh=0 / rc_lookahead=40 / rc=2pass / mbtree=1 / bitrate=9479 / ratetol=1.0 / qcomp=0.60 / qpmin=0 / qpmax=69 / qpstep=4 / cplxblur=20.0 / qblur=0.5 / ip_ratio=1.40 / aq=1:1.00
Language : English
Default : Yes
Forced : No

Audio #1
ID : 2
Format : AC-3
Format/Info : Audio Coding 3
Mode extension : CM (complete main)
Format settings, Endianness : Big
Codec ID : A_AC3
Duration : 1 h 39 min
Bit rate mode : Constant
Bit rate : 192 kb/s
Channel(s) : 2 channels
Channel positions : Front: L R
Sampling rate : 48.0 kHz
Frame rate : 31.250 FPS (1536 spf)
Compression mode : Lossy
Stream size : 137 MiB (2%)
Title : AC3, 2 ch, 192 Kbps, MVO
Language : Russian
Default : Yes
Forced : No

Audio #2
ID : 3
Format : AC-3
Format/Info : Audio Coding 3
Mode extension : CM (complete main)
Format settings, Endianness : Big
Codec ID : A_AC3
Duration : 1 h 39 min
Bit rate mode : Constant
Bit rate : 384 kb/s
Channel(s) : 6 channels
Channel positions : Front: L C R, Side: L R, LFE
Sampling rate : 48.0 kHz
Frame rate : 31.250 FPS (1536 spf)
Compression mode : Lossy
Stream size : 274 MiB (3%)
Title : AC3, 6 ch, 384 Kbps, AVO, den904
Language : Russian
Default : No
Forced : No

Audio #3
ID : 4
Format : DTS
Format/Info : Digital Theater Systems
Mode : 16
Format settings, Endianness : Big
Codec ID : A_DTS
Duration : 1 h 39 min
Bit rate mode : Constant
Bit rate : 1 509 kb/s
Channel(s) : 6 channels
Channel positions : Front: L C R, Side: L R, LFE
Sampling rate : 48.0 kHz
Frame rate : 93.750 FPS (512 spf)
Bit depth : 24 bits
Compression mode : Lossy
Stream size : 1.05 GiB (13%)
Title : DTS, 6 ch, 1509 Kbps, Original
Language : English
Default : No
Forced : No

Text #1
ID : 5
Format : UTF-8
Codec ID : S_TEXT/UTF8
Codec ID/Info : UTF-8 Plain Text
Language : English
Default : No
Forced : No

Text #2
ID : 6
Format : UTF-8
Codec ID : S_TEXT/UTF8
Codec ID/Info : UTF-8 Plain Text
Language : German
Default : No
Forced : No

Text #3
ID : 7
Format : UTF-8
Codec ID : S_TEXT/UTF8
Codec ID/Info : UTF-8 Plain Text
Language : French
Default : No
Forced : No

Text #4
ID : 8
Format : UTF-8
Codec ID : S_TEXT/UTF8
Codec ID/Info : UTF-8 Plain Text
Language : Spanish
Default : No
Forced : No

Text #5
ID : 9
Format : UTF-8
Codec ID : S_TEXT/UTF8
Codec ID/Info : UTF-8 Plain Text
Language : Portuguese
Default : No
Forced : No

Text #6
ID : 10
Format : UTF-8
Codec ID : S_TEXT/UTF8
Codec ID/Info : UTF-8 Plain Text
Language : Italian
Default : No
Forced : No

Text #7
ID : 11
Format : UTF-8
Codec ID : S_TEXT/UTF8
Codec ID/Info : UTF-8 Plain Text
Language : Dutch
Default : No
Forced : No

Text #8
ID : 12
Format : UTF-8
Codec ID : S_TEXT/UTF8
Codec ID/Info : UTF-8 Plain Text
Language : Swedish
Default : No
Forced : No

Text #9
ID : 13
Format : UTF-8
Codec ID : S_TEXT/UTF8
Codec ID/Info : UTF-8 Plain Text
Language : Norwegian
Default : No
Forced : No

Text #10
ID : 14
Format : UTF-8
Codec ID : S_TEXT/UTF8
Codec ID/Info : UTF-8 Plain Text
Language : Hebrew
Default : No
Forced : No

Menu
00:00:00.000 : en:01. Main Titles
00:11:37.780 : en:02. Party Time
00:16:03.545 : en:03. Sue a Hospital?
00:27:31.733 : en:04. Potentially Great
00:33:55.867 : en:05. Getting Down To It
00:39:41.128 : en:06. All Rise
00:46:16.815 : en:07. One Person to Another
00:51:30.253 : en:08. Pre Existing Condition
00:58:22.248 : en:09. Paying Respect
01:08:44.745 : en:10. Sex Therapy
01:20:21.733 : en:11. Long Talk
01:33:46.203 : en:12. End Credits
Скриншоты
Puncture.2011.BDRip.(1080p).mkv.torrent
 СЕРЕБРЯНАЯ РАЗДАЧА! СКАЧАННОЕ ЗАСЧИТЫВАЕТСЯ ТОЛЬКО НАПОЛОВИНУ! 
Вечный
Трекер: Зарегистрирован

magnet ссылка

 


Скачать .torrent

40 KB

Статус: проверено (by ilyash_rekviem в 05-Ноя-18 01:28)
Зарегистрирован: 04-Ноя-18 22:19
Скачан: 35 раз
Размер: 8.06 GB | 
Поблагодарили:
Скачать Прокол / Puncture (Адам Кассен , Марк Кассен ) [2011, драма, биография, BDRip 1080p] [Кинопоказ] [den904] торрент
 


Похожие раздачи

Ot10ok_84

post 07-Ноя-18 00:50 (спустя 2 дня 2 часа)

Офигеннейший фильм. Битый дёрганный звук перевода выбесил.

Suentebueck

post 07-Ноя-18 18:41 (спустя 17 часов)

Ot10ok_84
Ничего подобного не наблюдалось. На днях смотрел фильм.

Текущее время: 18-Ноя 15:04

Часовой пояс: GMT + 3



Вы не можете начинать темы
Вы не можете отвечать на сообщения
Вы не можете редактировать свои сообщения
Вы не можете удалять свои сообщения
Вы не можете голосовать в опросах
Вы не можете прикреплять файлы к сообщениям
Вы не можете скачивать файлы