Loading...
Error
 

Скачать торрент Will Smith - The Will Smith Music Video Collection [1999, Hip Hop, Pop, DVDRip-AVC]

 
Автор Сообщение

Skywalker007

post 09-Ноя-18 00:15

pic
Will Smith - The Will Smith Music Video Collection

Год выпуска: 1999
Страна: США, Columbia Music Video
Жанр: Hip Hop, Pop
Продолжительность: 00:43:38 + 00:04:53
Описание: Коллекция музыкальных клипов.
Треклист:

01. Opening Montage
02. Men In Black
03. Just Cruisin'
04. Gettin' Jiggy Wit It
05. Just The Two Of Us
06. Miami
07. Wild Wild West
08. Will 2K
09. Behind The Scenes Of "Will 2K"
10. Bloopers
11. End Credits
12. So Fresh (Featuring – Biz Markie, Slick Rick) (Bonus)
Качество: DVDRip-AVC (сохранены оригинальные чаптеры как на DVD)
Формат: MKV
Видео кодек: AVC
Аудио кодек: FLAC, AC3
Видео: NTSC 4:3 (720x480), 29.970 fps, MPEG-4 AVC, 4580 Кбит/с, 0.442 bit/pixel
Аудио 1: English (FLAC, 48KHz, 2 ch, 796 Кбит/с)
Аудио 2: English (AC3, 48KHz, 6 ch, 448 Кбит/с)
Скриншоты
Media Info
Формат : Matroska
Версия формата : Version 4 / Version 2
Размер файла : 1,77 Гбайт
Продолжительность : 43 м.
Режим общего битрейта : Переменный
Общий поток : 5796 Кбит/сек
Название фильма : Will Smith - The Will Smith Music Video Collection (1999)
Дата кодирования : UTC 2017-03-05 16:51:00
Программа кодирования : mkvmerge v7.6.0 ('Garden of Dreams') 64bit built on Feb 8 2015 13:04:34
Библиотека кодирования : libebml v1.3.1 + libmatroska v1.4.2

Видео
Идентификатор : 1
Формат : AVC
Формат/Информация : Advanced Video Codec
Профиль формата : [email protected]
Параметр CABAC формата : Да
Параметр ReFrames формата : 2 кадра
Идентификатор кодека : V_MPEG4/ISO/AVC
Продолжительность : 43 м.
Битрейт : 4580 Кбит/сек
Ширина : 720 пикселей
Высота : 480 пикселей
Соотношение сторон : 4:3
Режим частоты кадров : Постоянный
Частота кадров : 29,970 (30000/1001) кадров/сек
Стандарт вещания : NTSC
Цветовое пространство : YUV
Субдискретизация насыщенности : 4:2:0
Битовая глубина : 8 бит
Тип развёртки : MBAFF
Метод сохранения типа развёртки : Чередующиеся поля
Порядок развёртки : Верхнее поле первое
Бит/(Пиксели*Кадры) : 0.442
Размер потока : 1,39 Гбайт (78%)
Библиотека кодирования : x264 core 148 r2721
Настройки программы : cabac=1 / ref=2 / deblock=1:0:0 / analyse=0x1:0x131 / me=umh / subme=9 / psy=1 / psy_rd=1.00:0.10 / mixed_ref=0 / me_range=64 / chroma_me=1 / trellis=1 / 8x8dct=0 / cqm=0 / deadzone=21,11 / fast_pskip=1 / chroma_qp_offset=-3 / threads=12 / lookahead_threads=1 / sliced_threads=0 / nr=0 / decimate=1 / interlaced=tff / bluray_compat=0 / constrained_intra=0 / bframes=0 / weightp=0 / keyint=299 / keyint_min=29 / scenecut=0 / intra_refresh=0 / rc_lookahead=0 / rc=2pass / mbtree=0 / bitrate=4580 / ratetol=1.0 / qcomp=0.60 / qpmin=10 / qpmax=69 / qpstep=4 / cplxblur=20.0 / qblur=0.5 / vbv_maxrate=4580 / vbv_bufsize=14000 / nal_hrd=none / filler=0 / ip_ratio=1.40 / aq=0
Default : Да
Forced : Нет
Цветовой диапазон : Limited

Аудио #1
Идентификатор : 2
Формат : FLAC
Формат/Информация : Free Lossless Audio Codec
Идентификатор кодека : A_FLAC
Продолжительность : 43 м.
Вид битрейта : Переменный
Битрейт : 796 Кбит/сек
Каналы : 2 канала
Расположение каналов : Front: L R
Частота : 48,0 КГц
Частота кадров : 10,417 кадров/сек (4608 spf)
Битовая глубина : 16 бит
Размер потока : 248 Мбайт (14%)
Язык : English
Default : Да
Forced : Нет

Аудио #2
Идентификатор : 3
Формат : AC-3
Формат/Информация : Audio Coding 3
Расширение режима : CM (complete main)
Параметр Endianness формата : Big
Идентификатор кодека : A_AC3
Продолжительность : 43 м.
Вид битрейта : Постоянный
Битрейт : 448 Кбит/сек
Каналы : 6 каналов
Расположение каналов : Front: L C R, Side: L R, LFE
Частота : 48,0 КГц
Частота кадров : 31,250 кадров/сек (1536 spf)
Метод сжатия : С потерями
Размер потока : 140 Мбайт (8%)
Язык : English
Default : Нет
Forced : Нет

Меню
00:00:00.000 : :01. Opening Montage
00:01:10.167 : :02. Men In Black
00:05:26.333 : :03. Just Cruisin'
00:09:48.200 : :04. Gettin' Jiggy Wit It
00:13:37.500 : :05. Just The Two Of Us
00:18:21.100 : :06. Miami
00:22:18.333 : :07. Wild Wild West
00:29:42.500 : :08. Will 2K
00:34:42.133 : :09. Behind The Scenes Of "Will 2K"
00:41:01.100 : :10. Bloopers
00:42:19.000 : :11. End Credits
Will.Smith.The.Will.Smith.Music.Video.Collection.1999.AVC.DVDRip.torrent
Трекер: Зарегистрирован

magnet ссылка

 


Скачать .torrent

20 KB

Статус: проверено (by Snowden в 09-Ноя-18 01:35)
Зарегистрирован: 09-Ноя-18 00:15
Скачан: 3 раза
Размер: 1.94 GB | 
Поблагодарили:
Скачать Will Smith - The Will Smith Music Video Collection [1999, Hip Hop, Pop, DVDRip-AVC] торрент
 


Похожие раздачи

Snowden

post 09-Ноя-18 00:36 (спустя 20 минут)

Аудио кодек: FLAC, АС3

Текущее время: 13-Ноя 10:02

Часовой пояс: GMT + 3



Вы не можете начинать темы
Вы не можете отвечать на сообщения
Вы не можете редактировать свои сообщения
Вы не можете удалять свои сообщения
Вы не можете голосовать в опросах
Вы не можете прикреплять файлы к сообщениям
Вы не можете скачивать файлы