Loading...
Error
 

Скачать торрент КВН-2018. Встреча выпускников (Эфир от 11.11.2018) [2018, Юмор, HDTVRip] От [R.G.Generalfilm]

 
Автор Сообщение

Monk612010

post 12-Ноя-18 18:04

КВН-2018. Встреча выпускников
pic

pic Год выпуска: 11.11.2018
pic Страна: Россия
pic Жанр: Юмор
pic Продолжительность: 01:41:39
pic Перевод: Не требуется [Русский]
pic Субтитры: Нет
pic Ведущий: Александр Масляков
pic Жюри: Юлий Гусман, Семен Слепаков, Валдис Пельш, Сергей Светлаков, Михаил Галустян.
pic Описание:
Популярные юмористические игры, в которых команды различных коллективов (учебных заведений, вузов, предприятий и т. д.) соревнуются в импровизациях на заданные темы, разыгрывании заранее заготовленных сцен, остроумных ответах на вопросы и т. д.
picКачество: HDTVRip by pic pic
picФормат: AVI
picВидео кодек: XviD
picАудио кодек: AC3
picВидео: XviD, 720x400 (16:9), 1789 kbps, 25 fps, 0,249 bpp
picАудио: AC3 / 2.0 / 48 kHz / 192 kbps /
ОтчетМедиаИнфо
General
Complete name : C:\Users\Evgeny\Downloads\GeneralFilm\KVN-2018. Vstrecha vypusknikov.HDTVRip.GeneralFilm.avi
Format : AVI
Format/Info : Audio Video Interleave
File size : 1.42 GiB
Duration : 1 h 41 min
Overall bit rate : 1 993 kb/s

Video
ID : 0
Format : MPEG-4 Visual
Format profile : Advanced [email protected]
Format settings, BVOP : 1
Format settings, QPel : No
Format settings, GMC : No warppoints
Format settings, Matrix : Custom
Codec ID : XVID
Codec ID/Hint : XviD
Duration : 1 h 41 min
Bit rate : 1 790 kb/s
Width : 720 pixels
Height : 400 pixels
Display aspect ratio : 16:9
Frame rate : 25.000 FPS
Color space : YUV
Chroma subsampling : 4:2:0
Bit depth : 8 bits
Scan type : Progressive
Compression mode : Lossy
Bits/(Pixel*Frame) : 0.249
Stream size : 1.27 GiB (90%)
Writing library : XviD 1.2.1 (UTC 2008-12-04)

Audio
ID : 1
Format : AC-3
Format/Info : Audio Coding 3
Mode extension : CM (complete main)
Format settings, Endianness : Big
Codec ID : 2000
Duration : 1 h 41 min
Bit rate mode : Constant
Bit rate : 192 kb/s
Channel(s) : 2 channels
Channel positions : Front: L R
Sampling rate : 48.0 kHz
Frame rate : 31.250 FPS (1536 spf)
Compression mode : Lossy
Stream size : 140 MiB (10%)
Alignment : Aligned on interleaves
Interleave, duration : 32 ms (0.80 video frame)
Команды
«СОК» (Самара) и «КаZахи» (Астана).[/url]
Рейтинги
pic pic
Скриншоты
KVN-2018._Vstrecha_vypusknikov.HDTVRip.GeneralF.torrent
Трекер: Зарегистрирован

magnet ссылка

 


Скачать .torrent

15 KB

Статус: проверено (by Cherepah в 12-Ноя-18 18:08)
Зарегистрирован: 12-Ноя-18 18:04
Скачан: 90 раз
Размер: 1.42 GB | 
Поблагодарили:
Скачать КВН-2018. Встреча выпускников (Эфир от 11.11.2018) [2018, Юмор, HDTVRip] От [R.G.Generalfilm] торрент
 


Похожие раздачи

Urolog79

post 12-Ноя-18 19:31 (спустя 1 час 26 минут)

Выпускники стали убоги, один раз, за всю игру может хихикнул и то уже не помню где, за релиз спасибо)

Гуиральдес

post 12-Ноя-18 21:30 (спустя 1 час 59 минут)

Согласен, игра провальная, пару раз улыбнулся, с турсунбека и песен казахов, непонятно как сок победили

Текущее время: 10-Дек 16:38

Часовой пояс: GMT + 3



Вы не можете начинать темы
Вы не можете отвечать на сообщения
Вы не можете редактировать свои сообщения
Вы не можете удалять свои сообщения
Вы не можете голосовать в опросах
Вы не можете прикреплять файлы к сообщениям
Вы не можете скачивать файлы