Loading...
Error
 

Скачать торрент Тетрадь смерти / Death Note (Тэцуро Араки) [2006 – 2007 | аниме, триллер, драма, криминал | BDRip 1080p] [HEVC] [Лицензия][от R.G. RustorRipper's]

 
Автор Сообщение

MDS

post 22-Ноя-18 04:31

pic
Тетрадь смерти / Death Note
37 из 37 серий

  • Год выпуска:
    2006 - 2007
  • Страна:
    Япония
  • Жанр:
    Аниме, мультфильм, фэнтези, триллер, драма, криминал
  • Продолжительность:
    ~ 00:23:00
  • Возрастное ограничение:
    16+
  • Режиссёр:
    Тэцуро Араки, Томохико Ито, Хироюки Цутия
  • Перевод:
    Полное дублирование
    [Лицензия]
  • Субтитры:
    Нет

Мамору Мияно, Брэд Свэйл, Винсент Тонг, Рё Наито, Тревор Дивэлл, Брайан Драммонд, Наоя Утида, Крис Бриттон, Кэидзи Фудзивара, Каппэи Ямагути и др.
pic
Убийство — дело непростое даже для хорошо подготовленного человека. Главную библейскую заповедь нам вбивают с детства. А даже если у кого-то и проскальзывают мысли «как сладко было бы воткнуть ножик в приятеля и придушить бы подружку, которая с пресловутым приятелем переспала» или что-нибудь попроще «подсыпать бы яду профессору, что никак зачет не ставит» или совсем невинное «вот бы конкурент в окошко выпал». Но обычно дальше фантазий, этакой невинной интеллектуальной мастурбации эти мысли не доходят. Даже те из нас, для кого убийство морально приемлемо боятся — боятся наказания.
pic
Автор рипа: pic
При поддержке проекта: pic
Релиз от: pic
pic
Качество: BDRip 1080p
Формат: MKV
Видео кодек: HEVC
Аудио кодек: AC-3
Видео: HEVC | x265 | ~ 2200 Kbps | 25 fps | 8 Bits |1920x1080|
Аудио: AC-3 | 48 kHz | 256 kbps | 2 ch



MediaInfo

Код:



Общее
Уникальный идентификатор                 : 203324194030238357842688622109217329250 (0x98F6D0BC18AF37B5ABE2EBE84E691062)
Полное имя                               : E:\Видео\Сериалы\Death Note BDRip 1080p\Death Note S01E01 [HEVC] BDRip 1080p.mkv
Формат                                   : Matroska
Версия формата                           : Version 4 / Version 2
Размер файла                             : 401 Мбайт
Продолжительность                        : 23 м. 1 с.
Общий поток                              : 2437 Кбит/сек
Название фильма                          : Death Note Episode 1 [BDRip 1080p-HQ] (Original Color) © SDIncorporation
Дата кодирования                         : UTC 2016-07-17 15:37:19
Программа кодирования                    : mkvmerge v9.0.1 ('Obstacles') 64bit
Библиотека кодирования                   : libebml v1.3.3 + libmatroska v1.4.4 / Lavf57.25.100
Обложка                                  : Yes
Attachments                              : cover.jpg
ENCODING_INFO                            : MATROSKA,WEBM > MKV / H264 > X265 ABR 2000kbps Slow / AC3 > AC3 CBR 256kbps

Видео
Идентификатор                            : 1
Формат                                   : HEVC
Формат/Информация                        : High Efficiency Video Coding
Профиль формата                          : [email protected]@Main
Идентификатор кодека                     : V_MPEGH/ISO/HEVC
Продолжительность                        : 23 м. 1 с.
Битрейт                                  : 2159 Кбит/сек
Ширина                                   : 1920 пикселей
Высота                                   : 1080 пикселей
Соотношение сторон                       : 16:9
Режим частоты кадров                     : Постоянный
Частота кадров                           : 25,000 кадров/сек
Цветовое пространство                    : YUV
Субдискретизация насыщенности            : 4:2:0
Битовая глубина                          : 8 бит
Бит/(Пиксели*Кадры)                      : 0.042
Размер потока                            : 356 Мбайт (89%)
Заголовок                                : Rip by MDS
Библиотека кодирования                   : x265 1.9+210-106a5a7dc4b3:[Windows][GCC 5.3.0][64 bit] 8bit
Настройки программы                      : wpp / ctu=64 / min-cu-size=8 / max-tu-size=32 / tu-intra-depth=1 / tu-inter-depth=1 / me=3 / subme=3 / merange=57 / no-rect / no-amp / max-merge=2 / temporal-mvp / no-early-skip / recursion-skip / rdpenalty=0 / no-tskip / no-tskip-fast / strong-intra-smoothing / no-lossless / no-cu-lossless / no-constrained-intra / no-fast-intra / open-gop / no-temporal-layers / interlace=0 / keyint=250 / min-keyint=25 / scenecut=40 / rc-lookahead=25 / lookahead-slices=6 / bframes=4 / bframe-bias=0 / b-adapt=2 / ref=4 / limit-refs=3 / no-limit-modes / weightp / no-weightb / aq-mode=1 / qg-size=32 / aq-strength=1.00 / cbqpoffs=0 / crqpoffs=0 / rd=3 / psy-rd=2.00 / rdoq-level=0 / psy-rdoq=0.00 / no-rd-refine / signhide / deblock=-3:-3 / sao / no-sao-non-deblock / b-pyramid / cutree / no-intra-refresh / rc=abr / bitrate=2000 / qcomp=0.60 / qpmin=0 / qpmax=51 / qpstep=4 / ipratio=1.40 / pbratio=1.30
Язык                                     : Russian
Default                                  : Да
Forced                                   : Нет

Аудио
Идентификатор                            : 2
Формат                                   : AC-3
Формат/Информация                        : Audio Coding 3
Параметр Endianness формата              : Big
Идентификатор кодека                     : A_AC3
Продолжительность                        : 23 м. 1 с.
Вид битрейта                             : Постоянный
Битрейт                                  : 256 Кбит/сек
Каналы                                   : 2 канала
Расположение каналов                     : Front: L R
Частота                                  : 48,0 КГц
Частота кадров                           : 31,250 кадров/сек (1536 SPF)
Битовая глубина                          : 16 бит
Метод сжатия                             : С потерями
Размер потока                            : 42,2 Мбайт (11%)
Заголовок                                : DUB [Лицензия]
Язык                                     : Russian
ServiceKind/String                       : Complete Main
Default                                  : Да
Forced                                   : Нет




Внимание!
H.265/HEVC (High Efficiency Video Coding) - это новый стандарт кодирования видео.
Стандарт H.265/HEVC является логическим продолжением стандарта H.264/AVC (Advanced Video Coding), и характеризуется более эффективными алгоритмами сжатия, а также поддержкой высокого разрешения вплоть до 8K UHD (8192x4320). Первая версия стандарта H.265 была опубликована в начале 2013 года.

Рипы в формате HEVC необходимо смотреть только с обновленными кодеками.

Обновленные драйвера можно скачать здесь: КОДЕКИ

Владельцам несовместимого железа просьба не беспокоить, есть альтернативные релизы.



Трейлер



Рейтинг
[rating][/rating]



✘ Скриншоты ✘



Death Note BDRip 1080p.torrent
 СЕРЕБРЯНАЯ РАЗДАЧА! СКАЧАННОЕ ЗАСЧИТЫВАЕТСЯ ТОЛЬКО НАПОЛОВИНУ! 
Вечный
Трекер: Зарегистрирован

magnet ссылка

 


Скачать .torrent

34 KB

Статус: проверено (by Cherepah в 22-Ноя-18 14:36)
Зарегистрирован: 22-Ноя-18 04:31
Скачан: 39 раз
Размер: 12.39 GB | 
Поблагодарили:
Скачать Тетрадь смерти / Death Note (Тэцуро Араки) [2006 – 2007 | аниме, триллер, драма, криминал | BDRip 1080p] [HEVC] [Лицензия][от R.G. RustorRipper's] торрент
 


Похожие раздачи

post 22-Ноя-18 12:38 (спустя 8 часов)

Топик был перенесен из форума HDTVRip / HDTV 720 / 1080 в форум BDRip / HDRip / AVC


Snowden
 

Текущее время: 15-Дек 07:28

Часовой пояс: GMT + 3



Вы не можете начинать темы
Вы не можете отвечать на сообщения
Вы не можете редактировать свои сообщения
Вы не можете удалять свои сообщения
Вы не можете голосовать в опросах
Вы не можете прикреплять файлы к сообщениям
Вы не можете скачивать файлы