Loading...
Error
 

Скачать торрент Вий (Георгий Кропачев, Константин Ершов) [1967, Ужасы, фэнтези, драма, BDRip 720p] [60 fps] [JPN Transfer] [Лицензия]

 
Автор Сообщение

ilyash_rekviem

post 26-Ноя-18 12:33

Вий
«Человеческое, земное и фантастическое, волшебное и причудливое — переплелось в этом фильме»

pic
Информация о фильме
picГод выхода: 1967
picСтрана: СССР
picЖанр: Ужасы, фэнтези, драма
picПродолжительность: 01:16:23
picПеревод: Не требуется [Лицензия]
picCубтитры: Отсутствуют
picРежиссер: Георгий Кропачев, Константин Ершов
picВ ролях: Леонид Куравлёв, Наталья Варлей, Алексей Глазырин, Николай Кутузов, Вадим Захарченко, Пётр Вескляров, Владимир Сальников, Дмитрий Капка, Степан Шкурат, Георгий Сочевко, Николай Яковченко, Николай Панасьев, Маргарита Криницына, Борислав Брондуков, Николай Степанов, Александр Лебедев, Михаил Крамар, Дмитрий Орловский, Анна Павлова, Борис Веселов, Любовь Калюжная, Виктор Колпаков, Александра Денисова
О фильме
Студент-философ Хома Брут должен провести несколько ночей у гроба умершей панночки в старой церквушке в далекой деревне. Сможет ли он побороть свой страх, или ему придется столкнуться с нечистой силой?..

Файл
picКачество: BDRip 720p / 60 FPS / JPN Transfer
picФормат: MKV
picВидео кодек: H.264
picАудио кодек: AC3
picВидео: 972 x 720 | 59.940 fps | ~7.8 Мбит/сек
picАудио #1: AC3 | 5.1 | 48 kHz | 640 kbps | 16 bit | Оригинал (Лицензия) [RUS]
MediaInfo

Код:

E:\1967 Вий BDRip 720p_60 fps.mkv
  General
    Unique ID : 210692618727552290280702366338241214182 (0x9E81EC1EECC236BA89FCF41C63AF36E6)
    Complete name : E:\1967 Вий BDRip 720p_60 fps.mkv
    Format : Matroska
    Format version : Version 4 / Version 2
    File size : 4.60 GiB
    Duration : 1h 16mn
    Overall bit rate mode : Variable
    Overall bit rate : 8 624 Kbps
    Movie name : Вий (1967) BDRip 720p | JPN Transfer | 60 fps
    Encoded date : UTC 2016-09-05 21:09:27
    Writing application : mkvmerge v7.6.0 ('Garden of Dreams') 32bit built on Feb  8 2015 12:51:39
    Writing library : libebml v1.3.1 + libmatroska v1.4.2
    DURATION : 01:16:23.648000000
    NUMBER_OF_FRAMES : 143239
    NUMBER_OF_BYTES : 366691840
    _STATISTICS_WRITING_APP : mkvmerge v7.6.0 ('Garden of Dreams') 32bit built on Feb  8 2015 12:51:39
    _STATISTICS_WRITING_DATE_UTC : 2016-09-05 21:09:27
    _STATISTICS_TAGS : BPS DURATION NUMBER_OF_FRAMES NUMBER_OF_BYTES
    Attachment : Yes
  Video #1
    ID : 1
    Format : AVC
    Format/Info : Advanced Video Codec
    Format profile : [email protected]
    Format settings, CABAC : Yes
    Format settings, ReFrames : 3 frames
    Format settings, GOP : M=3, N=72
    Codec ID : V_MPEG4/ISO/AVC
    Duration : 1h 16mn
    Bit rate mode : Variable
    Bit rate : 7 813 Kbps
    Maximum bit rate : 8 000 Kbps
    Width : 972 pixels
    Height : 720 pixels
    Display aspect ratio : 4:3
    Frame rate : 59.940 fps
    Standard : PAL
    Color space : YUV
    Chroma subsampling : 4:2:0
    Bit depth : 8 bits
    Scan type : Progressive
    Bits/(Pixel*Frame) : 0.186
    Stream size : 4.17 GiB (91%)
    Language : English
    Default : Yes
    Forced : No
    Color primaries : BT.709-5, BT.1361, IEC 61966-2-4, SMPTE RP177
    Transfer characteristics : BT.709-5, BT.1361
    Matrix coefficients : BT.709-5, BT.1361, IEC 61966-2-4 709, SMPTE RP177
  Audio #2
    ID : 2
    Format : AC-3
    Format/Info : Audio Coding 3
    Mode extension : CM (complete main)
    Format settings, Endianness : Big
    Codec ID : A_AC3
    Duration : 1h 16mn
    Bit rate mode : Constant
    Bit rate : 640 Kbps
    Channel(s) : 2 channels
    Channel positions : Front: L R
    Sampling rate : 48.0 KHz
    Bit depth : 16 bits
    Compression mode : Lossy
    Stream size : 350 MiB (7%)
    Default : Yes
    Forced : No
Скриншоты
pic
© Оформление by ilyash_rekviem rustoka.com
1967 Вий BDRip 720p_60 fps.mkv.torrent
 ЗОЛОТАЯ РАЗДАЧА! СКАЧАННОЕ НЕ ЗАСЧИТЫВАЕТСЯ! 
Вечный
Трекер: Зарегистрирован

magnet ссылка

 


Скачать .torrent

12 KB

Статус: проверено (by ilyash_rekviem в 26-Ноя-18 12:34)
Зарегистрирован: 26-Ноя-18 12:33
Скачан: 20 раз
Размер: 4.6 GB | 
Поблагодарили:
Скачать Вий (Георгий Кропачев, Константин Ершов) [1967, Ужасы, фэнтези, драма, BDRip 720p] [60 fps] [JPN Transfer] [Лицензия] торрент
 


Похожие раздачи

andreypplk

post 26-Ноя-18 13:05 (спустя 32 минуты)

JPN Transfer Это что с японского диска чтоли

ilyash_rekviem

post 26-Ноя-18 13:16 (спустя 10 минут)

andreypplk
Вроде как ремастер

Snowden

post 26-Ноя-18 13:28 (спустя 11 минут)

andreypplk
Японский видеоряд.

HardwareMining

post 26-Ноя-18 18:56 (спустя 5 часов)

andreypplk
http://rustorka.com/forum/viewtopic.php?t=230731 исходник

Текущее время: 15-Дек 07:18

Часовой пояс: GMT + 3



Вы не можете начинать темы
Вы не можете отвечать на сообщения
Вы не можете редактировать свои сообщения
Вы не можете удалять свои сообщения
Вы не можете голосовать в опросах
Вы не можете прикреплять файлы к сообщениям
Вы не можете скачивать файлы