Loading...
Error
 

Скачать торрент Грязь / Filth (Джон С. Бейрд) [2013, криминал, драма, комедия, HDRip] AVO [Д. Пучков aka Goblin]

 
Автор Сообщение

ilyash_rekviem

post 30-Ноя-18 13:50

Грязь / Filth

pic
Информация о фильме
picГод выхода: 2013
picСтрана: Великобритания, Германия, Швеция, Бельгия, США
picЖанр: криминал, драма, комедия
picПродолжительность: 01:37:22
picПеревод: Авторский (одноголосый, закадровый) Дмитрий Пучков aka Goblin (без цензуры)
picCубтитры: отсутствуют
picРежиссер: Джон С. Бейрд
picВ ролях: Джеймс МакЭвой, Джейми Белл, Джим Бродбент, Имоджен Путс, Йен де Кестекер, Джоанн Фроггатт, Иман Эллиотт, Ширли Хендерсон, Эдди Марсан, Мартин Компстон
О фильме
Главный герой — продажный шотландский полицейский Брюс Робертсон, помешанный на сексе и кокаине. Ему бы надо расследовать убийство, но ему сильно мешают собственные странности, привычка разыгрывать коллег и беготня за девушками. За Робертсоном присматривают его напарник Рэй Леннокс и начальник Боб Тоал.

*** Внимание! Присутствует ненормативная лексика!
Файл
picКачество: HDRip
picФормат: AVI
picВидео кодек: XviD
picАудио кодек: AC3
picВидео: 720x304 (2.37:1), 24 fps, XviD build 50 ~1735 kbps avg, 0.33 bit/pixel
picАудио #1: 48 kHz, AC3 Dolby Digital, 3/2 (L,C,R,l,r) + LFE ch, ~384.00 kbps avg
MediaInfo

Код:

E:\Gryaz.2013_HDRip_Goblin.avi
  General
    Complete name : E:\Gryaz.2013_HDRip_Goblin.avi
    Format : AVI
    Format/Info : Audio Video Interleave
    File size : 1.45 GiB
    Duration : 1h 37mn
    Overall bit rate : 2 129 Kbps
    Writing application : VirtualDubMod 1.5.10.2 (build 2540/release)
    Writing library : VirtualDubMod build 2540/release
  Video #0
    ID : 0
    Format : MPEG-4 Visual
    Format profile : Advanced [email protected]
    Format settings, BVOP : 1
    Format settings, QPel : No
    Format settings, GMC : No warppoints
    Format settings, Matrix : Custom
    Codec ID : XVID
    Codec ID/Hint : XviD
    Duration : 1h 37mn
    Bit rate : 1 736 Kbps
    Width : 720 pixels
    Height : 304 pixels
    Display aspect ratio : 2.35:1
    Frame rate : 24.000 fps
    Color space : YUV
    Chroma subsampling : 4:2:0
    Bit depth : 8 bits
    Scan type : Progressive
    Compression mode : Lossy
    Bits/(Pixel*Frame) : 0.330
    Stream size : 1.18 GiB (82%)
    Writing library : XviD 1.2.1 (UTC 2008-12-04)
  Audio #1
    ID : 1
    Format : AC-3
    Format/Info : Audio Coding 3
    Mode extension : CM (complete main)
    Format settings, Endianness : Big
    Codec ID : 2000
    Duration : 1h 37mn
    Bit rate mode : Constant
    Bit rate : 384 Kbps
    Channel(s) : 6 channels
    Channel positions : Front: L C R, Side: L R, LFE
    Sampling rate : 48.0 KHz
    Bit depth : 16 bits
    Compression mode : Lossy
    Stream size : 267 MiB (18%)
    Alignment : Split accross interleaves
    Interleave, duration : 42 ms (1.00 video frame)
    Interleave, preload duration : 500 ms
Скриншоты
pic
© Оформление by ilyash_rekviem rustoka.com
Gryaz.2013_HDRip_Goblin.avi.torrent
Трекер: Зарегистрирован

magnet ссылка

 


Скачать .torrent

15 KB

Статус: проверено (by ilyash_rekviem в 30-Ноя-18 13:51)
Зарегистрирован: 30-Ноя-18 13:50
Скачан: 52 раза
Размер: 1.45 GB | 
Поблагодарили:
Скачать Грязь / Filth (Джон С. Бейрд) [2013, криминал, драма, комедия, HDRip] AVO [Д. Пучков aka Goblin] торрент
 


Похожие раздачи

Filllslims

post 30-Ноя-18 14:52 (спустя 1 час 2 минуты)

Художественный фильм "Мразь".. Обалденное кино в переводе Дмитрия Юрьевича!!

Текущее время: 15-Дек 07:44

Часовой пояс: GMT + 3



Вы не можете начинать темы
Вы не можете отвечать на сообщения
Вы не можете редактировать свои сообщения
Вы не можете удалять свои сообщения
Вы не можете голосовать в опросах
Вы не можете прикреплять файлы к сообщениям
Вы не можете скачивать файлы