Loading...
Error
 

Скачать торрент Валландер / Wallander / 1 сезон, 10 серий из 13 (Андерс Энгстрем, Агнета Фагерстрем-Олссон, Лейф Магнуссон, Кэтрин Уиндфельд) [2005-2006, Триллер, криминал, детектив, драма, экранизация,BDRip 1080p] HEVC [ТПО Ред Медиа]

 
Автор Сообщение

brother225

post 30-Ноя-18 14:40

pic
Валландер/Wallander

Год выпуска: 2005-2006
Страна: Швеция
Жанр: Триллер, криминал, детектив, драма, экранизация
Продолжительность: 10 ~ 01:30:00
Сезон: 1
Серии: 10 из 13
Перевод:Профессиональный многоголосый закадровый [ТПО Ред Медиа]
Субтитры: отсутствуют
В ролях: Кристер Хенрикссон, Фредерик Гуннарссон, Матс Бергман, Стина Экблад, Дуглас Йоханссон, Юханна Селльстрём, Лена Эндре, Ола Рапас, Анджела Ковач, Харольд Леандер, Инге Йоханссон, Андерс Седерберг, Бойл Ларссон, Карлос Паулссон, Сесилия Нилссон, Дженс Хультен, Пер Морберг, Бор Ове, Фредерик Долк, Матс Эклунд, Нина Норен, Уоллис Гран, Рафаэль Петтерссон, Мартин Волстром, Патрик Карлсон, Миодраг Стоянович, Пер Лундстрем, Стефан Карлссон, Аня Шмидт
Режиссёр: Андерс Энгстрем, Агнета Фагерстрем-Олссон, Лейф Магнуссон, Кэтрин Уиндфельд
Описание: Детективный сериал по сюжетам произведений Хеннинга Манкелля. Умело закрученные криминальные истории, интригующие, завораживающие, а порой шокирующие, в центре которых находится не мускулистый и жесткий полицейский, а думающий, тонкий человек, отдающий всего себя своему делу, - комиссар уголовной полиции Курт Валландер. Он просто женат на своей работе. Его дочь, Линда, окончила полицейскую школу и также начала службу в полиции Истада. Команда полицейских под руководством Валланлера расследует самые разнообразные уголовные дела: терроризм, исчезновения людей, преступления на религиозной почве и кровавые убийства.
Качество: BDRip 1080p
Формат: MKV
Видео кодек: x265
Аудио кодек: AC3
Видео: AVC 1920х1080, 25 fps, ~ 6.7-10.5 Mb/s ,0.203 bpp
Аудио: AC3, 2 ch , 48 KHz 192 Kb/s,[ТПО Ред Медиа]
Cодержание
01. Innan frosten (Before the Frost)
02. Byfånen (The Village Idiot)
03. Bröderna (The Brothers)
04.Mörkret (The Overdose aka The Darkness)
05. Afrikanen (The African)
06. Mastermind (Mastermind)
07. Den svaga punkten (The Tricksters)
08. Fotografen (The Photographer)
09. Täckmanteln (The Container Lorry)
10. Luftslottet (The Castle Ruins)
MediaInfo
Complete name : W:\Wallander.SE.S01\6.mkv
Format : Matroska
Format version : Version 4
File size : 7.11 GiB
Duration : 1 h 35 min
Overall bit rate : 10.7 Mb/s
Encoded date : UTC 2018-12-02 13:37:18
Writing application : mkvmerge v29.0.0 ('Like It Or Not') 64-bit
Writing library : libebml v1.3.6 + libmatroska v1.4.9

Video
ID : 1
Format : HEVC
Format/Info : High Efficiency Video Coding
Format profile : Main [email protected]@Main
Codec ID : V_MPEGH/ISO/HEVC
Duration : 1 h 35 min
Bit rate : 10.5 Mb/s
Width : 1 920 pixels
Height : 1 080 pixels
Display aspect ratio : 16:9
Frame rate mode : Constant
Frame rate : 25.000 FPS
Color space : YUV
Chroma subsampling : 4:2:0
Bit depth : 10 bits
Bits/(Pixel*Frame) : 0.203
Stream size : 6.98 GiB (98%)
Writing library : x265 2.9+9-f74003e88622:[Windows][MSVC 1916][64 bit] 10bit
Default : Yes
Forced : No

Audio
ID : 2
Format : AC-3
Format/Info : Audio Coding 3
Commercial name : Dolby Digital
Codec ID : A_AC3
Duration : 1 h 35 min
Bit rate mode : Constant
Bit rate : 192 kb/s
Channel(s) : 2 channels
Channel layout : L R
Sampling rate : 48.0 kHz
Frame rate : 31.250 FPS (1536 SPF)
Bit depth : 16 bits
Compression mode : Lossy
Stream size : 130 MiB (2%)
Service kind : Complete Main
Default : Yes
Forced : No
Скриншоты
Wallander.SE.S01.torrent
 ЗОЛОТАЯ РАЗДАЧА! СКАЧАННОЕ НЕ ЗАСЧИТЫВАЕТСЯ! 
Вечный
Трекер: Зарегистрирован

magnet ссылка

 


Скачать .torrent

324 KB

Статус: проверено (by ikar666 в 04-Дек-18 23:26)
Зарегистрирован: 04-Дек-18 23:12
Скачан: 1 раз
Размер: 64.77 GB | 
Поблагодарили:
Скачать Валландер / Wallander / 1 сезон, 10 серий из 13 (Андерс Энгстрем, Агнета Фагерстрем-Олссон, Лейф Магнуссон, Кэтрин Уиндфельд) [2005-2006, Триллер, криминал, детектив, драма, экранизация,BDRip 1080p] HEVC [ТПО Ред Медиа] торрент
 


Похожие раздачи

brother225

post 01-Дек-18 17:16 (спустя 1 день 2 часа)

del

Текущее время: 15-Дек 07:19

Часовой пояс: GMT + 3



Вы не можете начинать темы
Вы не можете отвечать на сообщения
Вы не можете редактировать свои сообщения
Вы не можете удалять свои сообщения
Вы не можете голосовать в опросах
Вы не можете прикреплять файлы к сообщениям
Вы не можете скачивать файлы