Loading...
Error
 

Скачать торрент Однажды в сказке / Once Upon a Time [3 сезон | 22 из 22] (Ральф Хемекер, Рон Андервуд, Дин Уайт) [2013 | фэнтези, мелодрама, приключения | BDRip 1080p][Невафильм][HEVC] От [R.G. RustorRipper's]

 
Автор Сообщение

MDS

post 01-Дек-18 20:36

pic
Однажды в сказке / Once Upon a Time
3 сезон | 22 из 22 серий



pic
  • Год выпуска:
    2013
  • Страна:
    США
  • Жанр:
    фэнтези, мелодрама, приключения
  • Продолжительность:
    ~00:43:00
  • Производство:
    ABC
  • Возрастное ограничение:
    6+
  • Режиссёр:
    Ральф Хемекер, Рон Андервуд, Дин Уайт
  • Перевод:
    Полное друблирование
    [Невафильм]
  • Субтитры:
    Нет

pic
Дженнифер Моррисон, Джиннифер Гудвин, Лана Паррия, Джошуа Даллас, Джаред Гилмор, Роберт Карлайл, Рафаэль Сбардж, Колин О’Донохью, Эмили де Рэвин, Ребекка Мэдер


pic
Сюжет фэнтези разворачивается в двух мирах — современном и сказочном. Жизнь 28-летней Эммы Свон меняется, когда ее 10-летний сын Генри, от которого она отказалась много лет назад, находит Эмму и объявляет, что она является дочерью Прекрасного Принца и Белоснежки. Само собой разумеется, у мальчишки нет никаких сомнений, что параллельно нашему существует альтернативный сказочный мир — город Сторибрук, в котором в итоге оказывается Эмма. Постепенно героиня привязывается к необычному мальчику и странному городу, жители которого «забыли», кем они были в прошлом. А все из-за проклятия Злой Королевы (по совместительству приемной матери Генри), с помощью которого колдунья остановила время в сказочной стране. Однако стоит протянуть руку — и сказка оживет. Эпическая битва за будущее двух миров начинается, но, чтобы одержать победу, Эмме придется принять свою судьбу…



pic
Автор рипа: pic
Специально для сайта: pic
Релиз от: pic



pic
Качество: BDRip 1080p
Формат: MKV
Видео кодек: HEVC
Аудио кодек: AC-3
Видео: HEVC | x265 | ~2500 Кбит/сек | 23,976 fps | 8 bits
|1920x1080|
Аудио: Русский | AC-3 | 48 kHz | 256 kbps | 2 ch



MediaInfo

Код:



Видео
Идентификатор                            : 1
Формат                                   : HEVC
Формат/Информация                        : High Efficiency Video Coding
Профиль формата                          : [email protected]@Main
Идентификатор кодека                     : V_MPEGH/ISO/HEVC
Продолжительность                        : 42 м. 56 с.
Битрейт                                  : 2445 Кбит/сек
Ширина                                   : 1920 пикселей
Высота                                   : 1080 пикселей
Соотношение сторон                       : 16:9
Режим частоты кадров                     : Постоянный
Частота кадров                           : 23,976 кадра/сек
Цветовое пространство                    : YUV
Субдискретизация насыщенности            : 4:2:0
Битовая глубина                          : 8 бит
Бит/(Пиксели*Кадры)                      : 0.049
Размер потока                            : 751 Мбайт (90%)
Заголовок                                : Rip by MDS
Язык                                     : Russian
Default                                  : Да
Forced                                   : Нет

Аудио
Идентификатор                            : 2
Формат                                   : AC-3
Формат/Информация                        : Audio Coding 3
Параметр Endianness формата              : Big
Идентификатор кодека                     : A_AC3
Продолжительность                        : 42 м. 56 с.
Вид битрейта                             : Постоянный
Битрейт                                  : 256 Кбит/сек
Каналы                                   : 2 канала
Расположение каналов                     : Front: L R
Частота                                  : 48,0 КГц
Частота кадров                           : 31,250 кадров/сек (1536 SPF)
Битовая глубина                          : 16 бит
Метод сжатия                             : С потерями
Задержка видео                           : -5 мс.
Размер потока                            : 78,6 Мбайт (9%)
Заголовок                                : DUB [Невафильм]
Язык                                     : Russian
ServiceKind/String                       : Complete Main
Default                                  : Да
Forced                                   : Нет




✘ Внимание! ✘
H.265/HEVC (High Efficiency Video Coding) - это новый стандарт кодирования видео.
Стандарт H.265/HEVC является логическим продолжением стандарта H.264/AVC (Advanced Video Coding), и характеризуется более эффективными алгоритмами сжатия, а также поддержкой высокого разрешения вплоть до 8K UHD (8192x4320). Первая версия стандарта H.265 была опубликована в начале 2013 года.

Рипы в фомате HEVC необходимо стотреть только с обновленными кодеками.

Обновленные драйвера можно скачать здесь: КОДЕКИ

Владельцам несовместимого железа просьба не беспокоить, есть альтернативные релизы.



pic



pic

         



Оформление подготовлено группой Свободные оформители pic
Сказке (3 сезон) 1080p (Дубляж).torrent
 СЕРЕБРЯНАЯ РАЗДАЧА! СКАЧАННОЕ ЗАСЧИТЫВАЕТСЯ ТОЛЬКО НАПОЛОВИНУ! 
Вечный
Трекер: Зарегистрирован

magnet ссылка

 


Скачать .torrent

47 KB

Статус: проверено (by Cherepah в 01-Дек-18 20:40)
Зарегистрирован: 01-Дек-18 20:36
Скачан: 6 раз
Размер: 17.97 GB | 
Поблагодарили:
Скачать Однажды в сказке / Once Upon a Time [3 сезон | 22 из 22] (Ральф Хемекер, Рон Андервуд, Дин Уайт) [2013 | фэнтези, мелодрама, приключения | BDRip 1080p][Невафильм][HEVC] От [R.G. RustorRipper's] торрент
 


Похожие раздачи

MDS

post 01-Дек-18 20:36 (спустя 34 секунды)

Приятного просмотра!

pasha86

post 02-Дек-18 02:07 (спустя 5 часов)

жаль сериал закрыли.

MDS

post 02-Дек-18 12:02 (спустя 9 часов)

pasha86
Да хороший сериал

wokk

post 04-Дек-18 21:59 (спустя 2 дня 9 часов)

Спасибо, жду остальные сезоны)

Текущее время: 10-Дек 16:05

Часовой пояс: GMT + 3



Вы не можете начинать темы
Вы не можете отвечать на сообщения
Вы не можете редактировать свои сообщения
Вы не можете удалять свои сообщения
Вы не можете голосовать в опросах
Вы не можете прикреплять файлы к сообщениям
Вы не можете скачивать файлы