Loading...
Error
 

Скачать торрент Мосгаз / 1 сезон / 1-8 серии из 8 (Андрей Малюков) [2012, детектив, криминал, WEB-DL 1080p]

 
Автор Сообщение

Suentebueck

post 01-Дек-18 21:17

pic
Мосгаз


Год выпуска: 2012
Страна: Россия
Жанр: детектив, криминал
Продолжительность: 00:51:38
Сезон: 1
Количество серий: 1-8 из 8
Перевод: Не требуется
Субтитры: русские

Режиссер: Андрей Малюков

В ролях: Андрей Смоляков (майор Черкасов), Марина Александрова (Соня Тимофеева), Максим Матвеев (Влад Вихров), Юрий Чурсин (Стас Шелест), Агния Кузнецова (Наташа), Светлана Ходченкова (Ирина), Екатерина Климова (Вера), Даниэла Стоянович (Маргарита), Анатолий Кузнецов (генерал Тимофеев), Роман Мадянов (директор театра), Алексей Бардуков (Гаркуша), Юрий Тарасов (Пожидаев)

Описание:
1962 год. Москва. Владимир Ионесян, по кличке Мосгаз, стал первым официально признанным серийным маньяком в Советском Союзе. Его кровавые деяния навсегда вошли в историю криминалистики, а его прозвищем мамы пугали детей.

Качество: WEB-DL 1080p
Формат: MKV
Видео кодек: AVC
Аудио кодек: AC3
Видео: 1920x1080 (16:9), 4706 kbps, 25 fps, 0,091 bpp
Аудио: русский / AC3 / 2.0 / 48 kHz / 192 kbps
Рейтинг
pic
МедиаИнфо
General
Unique ID : 202244219078530963187948584035361243323 (0x9826D1DBCEDFF7EAA1A156C9FF3C40BB)
Complete name : D:\Я\Фильмы\MosGaz.2012.WEB-DL.(1080p).ExKinoRay\MosGaz.(02.seriya).2012.WEB-DL.(1080p).ExKinoRay.mkv
Format : Matroska
Format version : Version 2
File size : 1.80 GiB
Duration : 51 min
Overall bit rate : 4 998 kb/s
Movie name : ExKinoRay
Encoded date : UTC 2016-11-15 02:13:40
Writing application : mkvmerge v5.8.0 ('No Sleep / Pillow') built on Sep 2 2012 15:37:04
Writing library : libebml v1.2.3 + libmatroska v1.3.0

Video
ID : 1
Format : AVC
Format/Info : Advanced Video Codec
Format profile : [email protected]
Format settings, CABAC : Yes
Format settings, ReFrames : 4 frames
Codec ID : V_MPEG4/ISO/AVC
Duration : 51 min
Bit rate : 4 706 kb/s
Width : 1 920 pixels
Height : 1 080 pixels
Display aspect ratio : 16:9
Frame rate mode : Constant
Frame rate : 25.000 FPS
Color space : YUV
Chroma subsampling : 4:2:0
Bit depth : 8 bits
Scan type : Progressive
Bits/(Pixel*Frame) : 0.091
Stream size : 1.70 GiB (94%)
Language : Russian
Default : Yes
Forced : Yes

Audio
ID : 2
Format : AC-3
Format/Info : Audio Coding 3
Mode extension : CM (complete main)
Format settings, Endianness : Big
Codec ID : A_AC3
Duration : 51 min
Bit rate mode : Constant
Bit rate : 192 kb/s
Channel(s) : 2 channels
Channel positions : Front: L R
Sampling rate : 48.0 kHz
Frame rate : 31.250 FPS (1536 spf)
Compression mode : Lossy
Stream size : 70.9 MiB (4%)
Language : Russian
Default : Yes
Forced : Yes

Text
ID : 3
Format : UTF-8
Codec ID : S_TEXT/UTF8
Codec ID/Info : UTF-8 Plain Text
Language : Russian
Default : No
Forced : No
Скриншоты
MosGaz.2012.WEB-DL.(1080p).ExKinoRay.torrent
Трекер: Зарегистрирован

magnet ссылка

 


Скачать .torrent

84 KB

Статус: проверено (by ikar666 в 01-Дек-18 21:33)
Зарегистрирован: 01-Дек-18 21:17
Скачан: 5 раз
Размер: 16.69 GB | 
Поблагодарили:
Скачать Мосгаз / 1 сезон / 1-8 серии из 8 (Андрей Малюков) [2012, детектив, криминал, WEB-DL 1080p] торрент
 


Похожие раздачи

Текущее время: 15-Дек 07:58

Часовой пояс: GMT + 3



Вы не можете начинать темы
Вы не можете отвечать на сообщения
Вы не можете редактировать свои сообщения
Вы не можете удалять свои сообщения
Вы не можете голосовать в опросах
Вы не можете прикреплять файлы к сообщениям
Вы не можете скачивать файлы