Loading...
Error
 

Скачать торрент ГудНайтШоу / Сезон: 1 / Серии: 1-6 из ? [2018, юмористическое шоу, концерт, сатира, WEBRip] От [R.G.Generalfilm]

 
Автор Сообщение

Monk612010

post 03-Дек-18 16:52

ГудНайтШоу
pic

pic Год выпуска: 2018
pic Страна: Украина
pic Жанр: Юмористическое шоу, концерт, сатира
pic Продолжительность: ~00:27:00
pic Перевод: Не требуется [Русский]
pic Субтитры: Нет

Сезон: 1

Количество серий: 1-6 из ?
pic Режиссер: Студия 95 квартал
pic В ролях: Валерий Жидков
pic Описание:
Валерий - ведущий шоу «Вечерний Киев» и программы «Чисто news», один из сценаристов «Вечернего Квартала» и других проектов студии «Квартал 95». Свою карьеру юмориста он начал в качестве участника команды КВН, получив сценическое имя «Тамбовский волк». Сейчас Валерий выступает с авторскими номерами в проекте «Вечерний Квартал» на «1 + 1» и сольными концертами. В новом проекте «# Гуднайтшоу» известный юморист представит ироничные монологи о событиях в стране и мире, о культуре, шоу-бизнес и религию, о работе на телевидении, а также тонко и остро будет шутить на бытовые темы, рассказывать смешные истории об известных людях и о себе.
picКачество: WEBRip - | pic pic
pic[b]Формат:
AVI
picВидео кодек: XviD
picАудио кодек: AC3
picВидео: XviD, 720x400 (16:9), 1580 kbps, 25 fps, 0,220 bpp
picАудио: AC3 / 2.0 / 48 kHz / 192 kbps /
ОтчетМедиаИнфо
General
Complete name : C:\Users\Evgeny\Downloads\GeneralFilm\GudNajtShou.2018.XviD.WEBRip.GeneralFilm\GudNajtShou.s01.e01.avi
Format : AVI
Format/Info : Audio Video Interleave
File size : 339 MiB
Duration : 26 min
Overall bit rate : 1 783 kb/s
Writing application : VirtualDubMod 1.5.10.3 | (build 2550/release)
Writing library : VirtualDubMod build 2550/release

Video
ID : 0
Format : MPEG-4 Visual
Format profile : Advanced [email protected]
Format settings, BVOP : 1
Format settings, QPel : No
Format settings, GMC : No warppoints
Format settings, Matrix : Default (H.263)
Codec ID : XVID
Codec ID/Hint : XviD
Duration : 26 min
Bit rate : 1 581 kb/s
Width : 720 pixels
Height : 400 pixels
Display aspect ratio : 16:9
Frame rate : 25.000 FPS
Color space : YUV
Chroma subsampling : 4:2:0
Bit depth : 8 bits
Scan type : Progressive
Compression mode : Lossy
Bits/(Pixel*Frame) : 0.220
Stream size : 301 MiB (89%)
Writing library : XviD 73

Audio
ID : 1
Format : AC-3
Format/Info : Audio Coding 3
Mode extension : CM (complete main)
Format settings, Endianness : Big
Codec ID : 2000
Duration : 26 min
Bit rate mode : Constant
Bit rate : 192 kb/s
Channel(s) : 2 channels
Channel positions : Front: L R
Sampling rate : 48.0 kHz
Frame rate : 31.250 FPS (1536 spf)
Compression mode : Lossy
Stream size : 36.5 MiB (11%)
Alignment : Split accross interleaves
Interleave, duration : 40 ms (1.00 video frame)
Interleave, preload duration : 500 ms
Содержание
Выпуск 1: 1 таблетка и 4 раза, с женой | ТВ vs Человек
Если 30 лет назад хвастались, что уже нет квартир, в которых нет телевизора, то сейчас в этих квартирах сложно найти комнату, в которой нет телевизора - Валерий Жидков о телевидении и человеке.
Выпуск 2: Секс роботы, порнофильмы и гей-парады
Сфера развлечений развивается быстро, постоянно совершенствуется и на смену старым приходят новые, еще более развлекательные. Но чтобы мы не изобретали, есть только одно увлечение, которое остается одинаково интересным всем людям на протяжении всех тысяч лет нашего существования - Секс.
Выпуск 3: От прыжков в стекловату и армейских приколов до квартиры на Набережной - О Себе
Если не знаешь о чем шутить - шути про себя. Поэтому тема сегодняшнего шоу It's me, что сразу же свидетельствует об уровне моего английского...
Выпуск 4: Дети Киркорова, Популяция ботаников, Загробная жизнь | Верю не верю
Валерий Жидков будет говорить о религии. Несмотря на то, что эта тема не самая веселая, он постарается сделать все возможное, чтобы вы уснули после этого шоу, а не во время.
Выпуск 5: Диктатор, ЗАХВАТИВШИЙ Власть в Украине
Победить на честных демократических выборах в Украине очень дорого, власть проще захватить. А самое главное - диктатором быть намного интереснее и сегодняшнее шоу тому подтверждение.
Выпуск 6: Юмористический РАЗГРОМ ФЕМИНИСТКИ
Столкнувшись с ярым проявлением феминизма, я вдруг понял, что имею крайне мутное понятие, что же это такое. Не поленившись и прочитав огромное количество книг и статей по этой теме, больше всего меня порадовала книга под названием “Мужчина - это недоношенная женщина”. И сегодняшнее шоу - это своего рода юмористический разгром феминистки или монолог недоношенной женщины.
Скриншоты
Раздача ведётся путём добавления новых серий
Внимание! Раздача ведётся путём добавления новых серий; при каждом добавлении создаётся новый торрент.
Чтобы начать докачку новой серии, пользователям необходимо сделать следующее:
1. Остановить скачивание;
2. Удалить старый торрент у себя из клиента (старые серии удалять не надо);
3. Скачать новый торрент и запустить его у себя в клиенте вместо старого, при этом указать клиенту путь в старую папку куда и должно происходить скачивание новых серий. Ваш клиент при этом должен произвести хеширование (проверку) старой папки и будет докачивать только те серии, которых у вас ещё нет. Старые серии при этом не удаляются, а продолжают раздаваться! Eсли вы уже удалили старые серии, то предотвратить повторную закачку старых серий можно, отжав галочку в соответствующих местах при запуске нового торрента.
GudNajtShou.2018.XviD.WEBRip.GeneralFilm.torrent
Трекер: Зарегистрирован

magnet ссылка

 


Скачать .torrent

21 KB

Статус: проверено (by Cherepah в 03-Дек-18 17:18)
Зарегистрирован: 03-Дек-18 16:52
Скачан: 20 раз
Размер: 1.99 GB | 
Поблагодарили:
Скачать ГудНайтШоу / Сезон: 1 / Серии: 1-6 из ? [2018, юмористическое шоу, концерт, сатира, WEBRip] От [R.G.Generalfilm] торрент
 


Похожие раздачи

Гуиральдес

post 03-Дек-18 17:50 (спустя 57 минут)

Этот мужик просто талантище, Гришковец отдыхает)

Текущее время: 15-Дек 07:18

Часовой пояс: GMT + 3



Вы не можете начинать темы
Вы не можете отвечать на сообщения
Вы не можете редактировать свои сообщения
Вы не можете удалять свои сообщения
Вы не можете голосовать в опросах
Вы не можете прикреплять файлы к сообщениям
Вы не можете скачивать файлы