Loading...
Error
 

Скачать торрент Багровая мята / Peppermint (Пьер Морель) [2018, боевик, триллер, драма, WEB-DLRip] DUB [iTunes] [IOS / Android / КПК] От [R.G.Generalfilm]

 
Автор Сообщение

Monk612010

post 05-Дек-18 13:07

Багровая мята / Peppermint
pic

pic Год выпуска: 2018
pic Страна: США, Гонконг
pic Жанр: боевик, триллер, драма
pic Продолжительность: 01:41:37
pic Перевод: Дублированный [iTunes]
pic Субтитры: Нет
pic Режиссер: Пьер Морель
pic В ролях: Дженнифер Гарнер, Джон Галлахер мл., Джон Ортис, Хуан Пабло Раба, Энни Айлонзех, Джефф Хефнер, Кэйли Флеминг, Эдди Шин, Метод Мэн, Тайсон Риттер
pic Описание:
Когда система закрывает глаза на убийство ее семьи, она решает вершить справедливость сама: очистить город от преступников и продажных полицейских, чтобы отомстить за любимых. Ведь месть - это блюдо, которое подают холодным. Холодным, как мороженое со вкусом мяты, которое так любила ее единственная дочь...
picКачество: WEB-DLRip by pic pic
picФормат: MPEG-4
picВидео кодек: AVC
picАудио кодек: AAC LC
picВидео: AVC, 640x264 (2.40:1), 400 kbps, 23.976 fps, 0.099 bpp
picАудио: AAC LC / 2.0 / 48 kHz / 128 kbps /
ОтчетМедиаИнфо
General
Complete name : F:\Rip\Peppermint.2018.WEB-DLRip.by.mjjhec.mp4
Format : MPEG-4
Format profile : Base Media
Codec ID : isom (isom/avc1/iso6)
File size : 385 MiB
Duration : 1 h 41 min
Overall bit rate mode : Variable
Overall bit rate : 529 kb/s
Encoded date : UTC 2018-12-03 19:50:13
Tagged date : UTC 2018-12-03 19:50:13

Video
ID : 1
Format : AVC
Format/Info : Advanced Video Codec
Format profile : [email protected]
Format settings : CABAC / 10 Ref Frames
Format settings, CABAC : Yes
Format settings, ReFrames : 10 frames
Codec ID : avc1
Codec ID/Info : Advanced Video Coding
Duration : 1 h 41 min
Bit rate : 400 kb/s
Maximum bit rate : 1 451 kb/s
Width : 640 pixels
Height : 264 pixels
Display aspect ratio : 2.40:1
Frame rate mode : Constant
Frame rate : 23.976 (24000/1001) FPS
Color space : YUV
Chroma subsampling : 4:2:0
Bit depth : 8 bits
Scan type : Progressive
Bits/(Pixel*Frame) : 0.099
Stream size : 289 MiB (75%)
Title : [email protected]
Writing library : x264 core 146 r2538 121396c
Encoding settings : cabac=1 / ref=10 / deblock=1:-3:-3 / analyse=0x3:0x133 / me=umh / subme=11 / psy=1 / psy_rd=1.00:1.00 / mixed_ref=1 / me_range=48 / chroma_me=1 / trellis=2 / 8x8dct=1 / cqm=0 / deadzone=21,11 / fast_pskip=1 / chroma_qp_offset=-4 / threads=6 / lookahead_threads=1 / sliced_threads=0 / nr=0 / decimate=0 / interlaced=0 / bluray_compat=0 / constrained_intra=0 / bframes=10 / b_pyramid=2 / b_adapt=2 / b_bias=0 / direct=3 / weightb=1 / open_gop=0 / weightp=2 / keyint=240 / keyint_min=23 / scenecut=40 / intra_refresh=0 / rc_lookahead=60 / rc=2pass / mbtree=0 / bitrate=400 / ratetol=1.0 / qcomp=0.60 / qpmin=0 / qpmax=69 / qpstep=4 / cplxblur=20.0 / qblur=0.5 / vbv_maxrate=14000 / vbv_bufsize=14000 / nal_hrd=none / filler=0 / ip_ratio=1.40 / pb_ratio=1.30 / aq=1:1.00
Encoded date : UTC 2018-12-03 19:50:13
Tagged date : UTC 2018-12-03 19:50:31
Codec configuration box : avcC

Audio
ID : 2
Format : AAC LC
Format/Info : Advanced Audio Codec Low Complexity
Codec ID : mp4a-40-2
Duration : 1 h 41 min
Bit rate mode : Variable
Bit rate : 128 kb/s
Maximum bit rate : 137 kb/s
Channel(s) : 2 channels
Channel layout : L R
Sampling rate : 48.0 kHz
Frame rate : 46.875 FPS (1024 SPF)
Compression mode : Lossy
Stream size : 93.0 MiB (24%)
Encoded date : UTC 2018-12-03 18:01:40
Tagged date : UTC 2018-12-03 19:50:31
Рейтинг
pic
Скриншоты
     
Peppermint.2018.WEB-DLRip.by.mjjhec.mp4.torrent
Трекер: Зарегистрирован

magnet ссылка

 


Скачать .torrent

16 KB

Статус: проверено (by ilyash_rekviem в 05-Дек-18 13:09)
Зарегистрирован: 05-Дек-18 13:07
Скачан: 18 раз
Размер: 385 MB | 
Поблагодарили:
Скачать Багровая мята / Peppermint (Пьер Морель) [2018, боевик, триллер, драма, WEB-DLRip] DUB [iTunes] [IOS / Android / КПК] От [R.G.Generalfilm] торрент
 


Похожие раздачи

Текущее время: 15-Дек 07:57

Часовой пояс: GMT + 3



Вы не можете начинать темы
Вы не можете отвечать на сообщения
Вы не можете редактировать свои сообщения
Вы не можете удалять свои сообщения
Вы не можете голосовать в опросах
Вы не можете прикреплять файлы к сообщениям
Вы не можете скачивать файлы