Loading...
Error
 

Скачать торрент Владимир Машков. Один по лезвию ножа (Ирина Голубева) [2018, Документальный, биография, HDTVRip] От [R.G.Generalfilm]

 
Автор Сообщение

Monk612010

post 05-Дек-18 18:14

Владимир Машков. Один по лезвию ножа
pic

pic Год выпуска: 2018
pic Страна: Россия
pic Жанр: Документальный, биография
pic Продолжительность: 00:45:55
pic Перевод: Не требуется
pic Субтитры: Нет
Режиссер: Ирина Голубева
В ролях: Владимир Машков, Евгений Миронов, Марина Зудина, Алексей Учитель, Денис Евстигнеев, Кристина Орбакайте, Игорь Золотовицкий, Карен Шахназаров, Юлия Пересильд, Ингеборга Дапкунайте, Авангард Леонтьев, Светлана Крючкова, Ольга Красько, Денис Никифоров
pic Описание:
Владимир Машков снимается в кино более двадцати пяти лет, и всегда — только в главных ролях. Само его участие в картине — уже знак качества и залог будущего успеха. Еще бы, Машков — один из самых любимых российских актеров, мачо и секс-символ нашего кино. Машков избегает журналистов. Но съёмочной группе удалось невозможное — впервые о себе, своей семье, актерской судьбе и профессии — он расскажет сам…
picКачество: HDTVRip by pic pic
picФормат: AVI
picВидео кодек: XviD
picАудио кодек: AC3
picВидео: XviD, 720x400 (16:9), 1475 kbps, 25 fps, 0.205 bpp
picАудио: AC3 / 2.0 / 48 kHz / 192 kbps /
ОтчетМедиаИнфо
General
Complete name : C:Новая папкаVladimir.Mashkov.Odin.po.lezviyu.nozha.XviD.2018.HDTVRip.Generalfilm.avi
Format : AVI
Format/Info : Audio Video Interleave
File size : 550 MiB
Duration : 45mn 55s
Overall bit rate : 1 675 Kbps
Movie name : Vladimir.Mashkov.Odin.po.lezviyu.nozha.XviD.2018.HDTVRip.Generalfilm
Director : Brux

Video
ID : 0
Format : MPEG-4 Visual
Format profile : Advanced [email protected]
Format settings, BVOP : 2
Format settings, QPel : No
Format settings, GMC : No warppoints
Format settings, Matrix : Custom
Codec ID : XVID
Codec ID/Hint : XviD
Duration : 45mn 55s
Bit rate : 1 475 Kbps
Width : 720 pixels
Height : 400 pixels
Display aspect ratio : 16:9
Frame rate : 25.000 fps
Color space : YUV
Chroma subsampling : 4:2:0
Bit depth : 8 bits
Scan type : Progressive
Compression mode : Lossy
Bits/(Pixel*Frame) : 0.205
Stream size : 485 MiB (88%)
Writing library : XviD 65

Audio
ID : 1
Format : AC-3
Format/Info : Audio Coding 3
Mode extension : CM (complete main)
Format settings, Endianness : Big
Codec ID : 2000
Duration : 45mn 55s
Bit rate mode : Constant
Bit rate : 192 Kbps
Channel(s) : 2 channels
Channel positions : Front: L R
Sampling rate : 48.0 KHz
Bit depth : 16 bits
Compression mode : Lossy
Stream size : 63.1 MiB (11%)
Alignment : Aligned on interleaves
Interleave, duration : 64 ms (1.60 video frames)
Interleave, preload duration : 192 ms
Title : Владимир Машков. Один по лезвию ножа
Скриншоты
Vladimir.Mashkov.Odin.po.lezviyu.nozha.XviD.201.torrent
Трекер: Зарегистрирован

magnet ссылка

 


Скачать .torrent

12 KB

Статус: проверено (by Cherepah в 05-Дек-18 18:55)
Зарегистрирован: 05-Дек-18 18:14
Скачан: 21 раз
Размер: 550 MB | 
Поблагодарили:
Скачать Владимир Машков. Один по лезвию ножа (Ирина Голубева) [2018, Документальный, биография, HDTVRip] От [R.G.Generalfilm] торрент
 


Похожие раздачи

Monk612010

post 05-Дек-18 18:15 (спустя 1 минута)

Побольше постер не нашел к сожалению

Cherepah

post 05-Дек-18 18:54 (спустя 38 минут)

В следующий раз, если не находите нужный по размеру Постер, просто увеличте его или уменьшите в программе ПАЙНТ хотя бы, до оптимально разрешённого размера.

Monk612010

post 05-Дек-18 18:56 (спустя 2 минуты)

Cherepah
ок

Текущее время: 15-Дек 08:11

Часовой пояс: GMT + 3



Вы не можете начинать темы
Вы не можете отвечать на сообщения
Вы не можете редактировать свои сообщения
Вы не можете удалять свои сообщения
Вы не можете голосовать в опросах
Вы не можете прикреплять файлы к сообщениям
Вы можете скачивать файлы