Loading...
Error
 

Скачать торрент Мы купили зоопарк / We Bought a Zoo (Кэмерон Кроу) [2011 | Драма, комедия, семейный | BDRip 1080p][iTunes][HEVC] От [R.G. RustorRipper's]

 
Автор Сообщение

MDS

post 06-Дек-18 04:44

pic
Мы купили зоопарк / We Bought a Zoo
«A true zoo story»



pic
  • Год выпуска:
    2011
  • Страна:
    США
  • Жанр:
    Драма, комедия, семейный
  • Продолжительность:
    02:03:54
  • Возрастное ограничение:
    8+
  • Режиссёр:
    Кэмерон Кроу
  • Перевод:
    Полное дублирование
    [iTunes]
  • Субтитры:
    Нет

pic
Мэтт Дэймон, Скарлетт Йоханссон, Томас Хейден Чёрч, Колин Форд, Мэгги Джонс, Энгус МакФадьен, Эль Фаннинг, Патрик Фьюджит, Джон Майкл Хиггинс, Карла Галло


pic
Лента рассказывает о том, как семейство Ми потратило все сбережения, чтобы спасти заброшенный сельский зверинец с двумя сотнями экзотических животных, которым грозила гибель.



pic
Автор рипа: pic
Специально для сайта: pic
Релиз от: pic



pic
Качество: BDRip 1080p
Формат: MKV
Видео кодек: HEVC
Аудио кодек: AC-3
Видео: HEVC | x265 | 3968 Кбит/сек | 23,976 fps | 8 bits
|1920x1000|
Аудио: Русский | AC-3 | 48 kHz | 384 kbps | 6 ch
Аудио: Английский | AC-3 | 48 kHz | 320 kbps | 6 ch



MediaInfo

Код:



Видео
Идентификатор                            : 1
Формат                                   : HEVC
Формат/Информация                        : High Efficiency Video Coding
Профиль формата                          : [email protected]@Main
Идентификатор кодека                     : V_MPEGH/ISO/HEVC
Продолжительность                        : 2 ч. 3 м.
Битрейт                                  : 3968 Кбит/сек
Ширина                                   : 1920 пикселей
Высота                                   : 1000 пикселей
Соотношение сторон                       : 1,920
Режим частоты кадров                     : Постоянный
Частота кадров                           : 23,976 (24000/1001) кадра/сек
Цветовое пространство                    : YUV
Субдискретизация насыщенности            : 4:2:0
Битовая глубина                          : 8 бит
Бит/(Пиксели*Кадры)                      : 0.086
Размер потока                            : 3,43 Гбайт (85%)
Заголовок                                : Rip by MDS
Язык                                     : Russian
Default                                  : Да
Forced                                   : Нет

Аудио #1
Идентификатор                            : 2
Формат                                   : AC-3
Формат/Информация                        : Audio Coding 3
Параметр Endianness формата              : Big
Идентификатор кодека                     : A_AC3
Продолжительность                        : 2 ч. 3 м.
Вид битрейта                             : Постоянный
Битрейт                                  : 384 Кбит/сек
Каналы                                   : 6 каналов
Расположение каналов                     : Front: L C R, Side: L R, LFE
Частота                                  : 48,0 КГц
Частота кадров                           : 31,250 кадров/сек (1536 SPF)
Битовая глубина                          : 16 бит
Метод сжатия                             : С потерями
Размер потока                            : 340 Мбайт (8%)
Заголовок                                : DUB [iTunes]
Язык                                     : Russian
ServiceKind/String                       : Complete Main
Default                                  : Да
Forced                                   : Нет

Аудио #2
Идентификатор                            : 3
Формат                                   : AC-3
Формат/Информация                        : Audio Coding 3
Параметр Endianness формата              : Big
Идентификатор кодека                     : A_AC3
Продолжительность                        : 2 ч. 3 м.
Вид битрейта                             : Постоянный
Битрейт                                  : 320 Кбит/сек
Каналы                                   : 6 каналов
Расположение каналов                     : Front: L C R, Side: L R, LFE
Частота                                  : 48,0 КГц
Частота кадров                           : 31,250 кадров/сек (1536 SPF)
Битовая глубина                          : 16 бит
Метод сжатия                             : С потерями
Размер потока                            : 284 Мбайт (7%)
Заголовок                                : Оригинал
Язык                                     : English
ServiceKind/String                       : Complete Main
Default                                  : Нет
Forced                                   : Нет




✘ Внимание! ✘
H.265/HEVC (High Efficiency Video Coding) - это новый стандарт кодирования видео.
Стандарт H.265/HEVC является логическим продолжением стандарта H.264/AVC (Advanced Video Coding), и характеризуется более эффективными алгоритмами сжатия, а также поддержкой высокого разрешения вплоть до 8K UHD (8192x4320). Первая версия стандарта H.265 была опубликована в начале 2013 года.

Рипы в фомате HEVC необходимо стотреть только с обновленными кодеками.

Обновленные драйвера можно скачать здесь: КОДЕКИ

Владельцам несовместимого железа просьба не беспокоить, есть альтернативные релизы.



pic



pic
         



Оформление подготовлено группой Свободные оформители pic
Mi Kupili Zoopark (2011) (HEVC) BDRip 1080p.mkv.torrent
Трекер: Зарегистрирован

magnet ссылка

 


Скачать .torrent

11 KB

Статус: проверено (by Snowden в 06-Дек-18 05:54)
Зарегистрирован: 06-Дек-18 04:44
Скачан: 4 раза
Размер: 4.05 GB | 
Поблагодарили:
Скачать Мы купили зоопарк / We Bought a Zoo (Кэмерон Кроу) [2011 | Драма, комедия, семейный | BDRip 1080p][iTunes][HEVC] От [R.G. RustorRipper's] торрент
 


Похожие раздачи

MDS

post 06-Дек-18 04:45 (спустя 25 секунд)

Приятного просмотра!

Текущее время: 15-Дек 08:46

Часовой пояс: GMT + 3



Вы не можете начинать темы
Вы не можете отвечать на сообщения
Вы не можете редактировать свои сообщения
Вы не можете удалять свои сообщения
Вы не можете голосовать в опросах
Вы не можете прикреплять файлы к сообщениям
Вы не можете скачивать файлы