Loading...
Error
 

Скачать торрент Оцепеневшие от страха / Aterrados (Демиан Рунья) [2018, ужасы, WEB-DL 1080p] DUB [iTunes]

 
Автор Сообщение

Cherepah

post 06-Дек-18 15:51

Оцепеневшие от страха / Aterrados
«Кто остановит вторжение из астрала?»
pic
pic
Год выпуска: 2018
Страна: Аргентина
Жанр: ужасы, ...
Продолжительность: 01:27:41
Перевод: Дублированный [iTunes]
Субтитры: Нет
В ролях: Максимилиано Гионе, Норберто Гонсало, Эльвира Онетто, Агустин Риттано, Демиан Саломон, Джордж Л. Льюис, Джульета Валлина, Арьель Чаваррия, Уго Албрич, Наталия Сеньоралес
Режиссёр: Демиан Рунья
pic
Леденящие душу жуткие события сотрясают пригородное местечко, где соседствуют три уютных домика. Неведомая и невидимая сила зверски убивает женщину на глазах мужа. Ночью у кровати его соседа появляется ужасный монстр. А мальчик из дома напротив, погибший под колесами автомобиля, возвращается с кладбища и садится за кухонный стол. Искать причину необъяснимых кошмаров берутся три специалиста по паранормальным явлениям и детектив из отдела по расследованию убийств.
Качество: WEB-DL 1080p
Формат: MKV
Видео кодек: MPEG-4 AVC
Аудио кодек: AC-3
Видео: MPEG-4 AVC, 1920x858, 4619 kbps, 24,000 fps
Аудио: AC-3, 6 ch, 384 Kbps, 48,0 KHz [RUS] pic

Скриншоты

MediaInfo

Код:

Общее
Уникальный идентификатор                 : 230808569160253363241100328158800470839 (0xADA41D0CCEF23ABB86B7912269496337)
Полное имя                               : H:\Оцепеневшие от страха\AterradosWEB-DL1080p.mkv
Формат                                   : Matroska
Версия формата                           : Version 4 / Version 2
Размер файла                             : 3,07 Гбайт
Продолжительность                        : 1 ч. 27 м.
Общий поток                              : 5005 Кбит/сек
Дата кодирования                         : UTC 2018-12-06 08:23:45
Программа кодирования                    : mkvmerge v9.5.0 ('Quiet Fire') 64bit
Библиотека кодирования                   : libebml v1.3.4 + libmatroska v1.4.5

Видео
Идентификатор                            : 1
Формат                                   : AVC
Формат/Информация                        : Advanced Video Codec
Профиль формата                          : [email protected]
Параметр CABAC формата                   : Да
Параметр ReFrames формата                : 5 кадров
Параметр GOP формата                     : N=1
Идентификатор кодека                     : V_MPEG4/ISO/AVC
Продолжительность                        : 1 ч. 27 м.
Битрейт                                  : 4619 Кбит/сек
Ширина                                   : 1920 пикселей
Высота                                   : 858 пикселей
Соотношение сторон                       : 2,25:1
Режим частоты кадров                     : Постоянный
Частота кадров                           : 24,000 кадра/сек
Цветовое пространство                    : YUV
Субдискретизация насыщенности            : 4:2:0
Битовая глубина                          : 8 бит
Тип развёртки                            : Прогрессивная
Бит/(Пиксели*Кадры)                      : 0.117
Размер потока                            : 2,83 Гбайт (92%)
Язык                                     : English
Default                                  : Да
Forced                                   : Нет
Цветовой диапазон                        : Limited
Основные цвета                           : BT.709
Характеристики трансфера                 : BT.709
Коэффициенты матрицы                     : BT.709

Аудио
Идентификатор                            : 2
Формат                                   : AC-3
Формат/Информация                        : Audio Coding 3
Параметр Endianness формата              : Big
Идентификатор кодека                     : A_AC3
Продолжительность                        : 1 ч. 27 м.
Вид битрейта                             : Постоянный
Битрейт                                  : 384 Кбит/сек
Каналы                                   : 6 каналов
Расположение каналов                     : Front: L C R, Side: L R, LFE
Частота                                  : 48,0 КГц
Частота кадров                           : 31,250 кадров/сек (1536 spf)
Битовая глубина                          : 16 бит
Метод сжатия                             : С потерями
Размер потока                            : 241 Мбайт (8%)
Язык                                     : Russian
ServiceKind/String                       : Complete Main
Default                                  : Да
Forced                                   : Нет

Меню
00:00:00.000                             : en:Глава 1
00:07:41.208                             : en:Глава 2
00:14:53.833                             : en:Глава 3
00:22:40.166                             : en:Глава 4
00:30:19.957                             : en:Глава 5
00:37:54.373                             : en:Глава 6
00:45:09.081                             : en:Глава 7
00:52:20.872                             : en:Глава 8
01:00:01.163                             : en:Глава 9
01:07:55.663                             : en:Глава 10
01:17:31.288                             : en:Глава 11

Trailer

pic
pic
pic
AterradosWEB-DL1080p.mkv.torrent
Трекер: Зарегистрирован

magnet ссылка

 


Скачать .torrent

16 KB

Статус: проверено (by Cherepah в 06-Дек-18 16:01)
Зарегистрирован: 06-Дек-18 15:51
Скачан: 1217 раз
Размер: 3.07 GB | 
Поблагодарили:
Скачать Оцепеневшие от страха / Aterrados (Демиан Рунья) [2018, ужасы, WEB-DL 1080p] DUB [iTunes] торрент
 


Похожие раздачи

teri

post 06-Дек-18 16:43 (спустя 52 минуты)

Фильм очень даже не плохой, положительно выделяется на фоне "глянцевых" америкосовских ужасников последних лет.

Гуиральдес

post 06-Дек-18 18:05 (спустя 1 час 21 минута)

Штош, качнем

cruck

post 06-Дек-18 19:24 (спустя 1 час 19 минут)

понравился. очень бодрый

bro110

post 06-Дек-18 20:19 (спустя 54 минуты)

нормальный такой)

Damien

post 06-Дек-18 21:58 (спустя 1 час 39 минут)

начало отменное. Потом разочаровал немного.

KpecT

post 06-Дек-18 22:22 (спустя 23 минуты)

очень страшно? много скримеров?
если ужастик только из-за скримеров, то прохожу мимо(

WAR8

post 06-Дек-18 22:43 (спустя 21 минута)

Зачётная киношка

superoleg

post 09-Дек-18 01:27 (спустя 2 дня 2 часа)

Добротный ужастик. Мистики, саспенса хоть отбавляй, нет этих дебильных скримеров. Жена весь фильм сидела на измене, да я и сам таких ощущений от ужасов не получал очень давно. НО! Есть одно большое НО! И это НО очень сильно портит впечатление от фильма, вплоть до негативного.
Но посмотреть, однозначно, стоит.

SATIRDOG

post 09-Дек-18 12:40 (спустя 11 часов)

Реально жутковатый фильм, после монашки на которой я два раза засыпал, этот прям то что надо.

feel1234

post 09-Дек-18 18:08 (спустя 5 часов)

фильм на раз.. сюжет подается отрывками, соответственно не все понятно
все самые интересные моменты показали в трейлере

Текущее время: 15-Дек 07:54

Часовой пояс: GMT + 3



Вы не можете начинать темы
Вы не можете отвечать на сообщения
Вы не можете редактировать свои сообщения
Вы не можете удалять свои сообщения
Вы не можете голосовать в опросах
Вы не можете прикреплять файлы к сообщениям
Вы не можете скачивать файлы