Loading...
Error
 

Скачать торрент Уральские пельмени (Страна Гирляндия) (Анастастия Ширина, Леонид Коновалов) [2018 г., ТВ-шоу, юмор, сатира, развлекательный, WEB-DL 1080p] | 31.12.2018

 
Автор Сообщение

Snowden

post 02-Янв-19 04:22


Уральские пельмени (Страна Гирляндия)
«-»

pic
Год выхода: 2018
Страна: Россия
Жанр: ТВ-шоу, юмор, сатира, развлекательный
Продолжительность: 01:11:24
Перевод: Не требуется
Субтитры: Отсутствуют

Режиссер: Анастастия Ширина, Леонид Коновалов
В ролях: Дмитрий Брекоткин, Сергей Ершов, Сергей Исаев, Сергей Калугин, Вячеслав Мясников, Александр Попов, Андрей Рожков, Дмитрий Соколов, Максим Ярица, Юлия Михалкова, Илана Юрьева, Ксения Корнева, Данила Пятков, Артём Пушкин, Роман Постовалов

О фильме: В эту страну визу дают раз в год. В эту страну летают не самолеты, а сани. Из неё привозят не магнитики, а елочные игрушки. И ею управляют дедушка с внучкой. Это «Страна Гирляндия» - новая программа Шоу «Уральские Пельмени»

Качество: WEB-DL 1080p
Формат: mkv
Видео кодек: AVC
Аудио кодек: AC3
Видео: 1920x1080, 25.000 fps, 3621 Кбит/с
Аудио: 192 kb/s, 2 ch, 44.1 KHz

Примечание: Релиз без рекламы!
MediaInfo

Код:

General
Unique ID                                : 228454007882615163656453235819399595275 (0xABDEA4375AB7D2F38323C90615EBC50B)
Complete name                            : H:\USD\Uralskie.Pelmeni.Strana.Girlyandiya.WEB-DL 1080p.mkv
Format                                   : Matroska
Format version                           : Version 2
File size                                : 1.94 GiB
Duration                                 : 1h 11mn
Overall bit rate                         : 3 890 Kbps
Encoded date                             : UTC 2018-12-31 23:28:23
Writing application                      : mkvmerge v7.8.0 ('River Man') 32bit built on Apr  3 2015 12:11:22
Writing library                          : libebml v1.3.1 + libmatroska v1.4.2

Video
ID                                       : 1
Format                                   : AVC
Format/Info                              : Advanced Video Codec
Format profile                           : [email protected]
Format settings, CABAC                   : Yes
Format settings, ReFrames                : 3 frames
Codec ID                                 : V_MPEG4/ISO/AVC
Duration                                 : 1h 11mn
Bit rate                                 : 3 621 Kbps
Width                                    : 1 920 pixels
Height                                   : 1 080 pixels
Display aspect ratio                     : 16:9
Frame rate mode                          : Constant
Frame rate                               : 25.000 fps
Color space                              : YUV
Chroma subsampling                       : 4:2:0
Bit depth                                : 8 bits
Scan type                                : Progressive
Bits/(Pixel*Frame)                       : 0.070
Stream size                              : 1.81 GiB (93%)
Default                                  : Yes
Forced                                   : No
Color range                              : Limited
Color primaries                          : BT.709
Transfer characteristics                 : BT.709
Matrix coefficients                      : BT.709

Audio
ID                                       : 2
Format                                   : AC-3
Format/Info                              : Audio Coding 3
Mode extension                           : CM (complete main)
Format settings, Endianness              : Big
Codec ID                                 : A_AC3
Duration                                 : 1h 11mn
Bit rate mode                            : Constant
Bit rate                                 : 192 Kbps
Channel(s)                               : 2 channels
Channel positions                        : Front: L R
Sampling rate                            : 44.1 KHz
Frame rate                               : 28.711 fps (1536 spf)
Compression mode                         : Lossy
Stream size                              : 98.1 MiB (5%)
Default                                  : Yes
Forced                                   : No

Рейтинг
pic pic pic
Доп. информация
Эфир от 31 декабря 2018 года
Скриншоты
Uralskie.Pelmeni.Strana.Girlyandiya.WEB-DL 1080p.mkv.torrent
Трекер: Зарегистрирован

magnet ссылка

 


Скачать .torrent

20 KB

Статус: проверено (by Snowden в 02-Янв-19 04:22)
Зарегистрирован: 02-Янв-19 04:22
Скачан: 126 раз
Размер: 1.94 GB | 
Поблагодарили:
Скачать Уральские пельмени (Страна Гирляндия) (Анастастия Ширина, Леонид Коновалов) [2018 г., ТВ-шоу, юмор, сатира, развлекательный, WEB-DL 1080p] | 31.12.2018 торрент
 


Похожие раздачи

Текущее время: 27-Июн 07:27

Часовой пояс: GMT + 3



Вы не можете начинать темы
Вы не можете отвечать на сообщения
Вы не можете редактировать свои сообщения
Вы не можете удалять свои сообщения
Вы не можете голосовать в опросах
Вы не можете прикреплять файлы к сообщениям
Вы не можете скачивать файлы