Loading...
Error
 

Скачать торрент Behemoth - Messe Noire: Live Satanist [2018 г., Black Metal, Death Metal, Blu-ray, 1080p]

 
Автор Сообщение

HardwareMining

post 06-Янв-19 18:44

Behemoth - Messe Noire: Live Satanist

pic

picГод выпуска: 2018
picСтрана: Польша
picЖанр: Black Metal, Death Metal
picПродолжительность: 01:07:45 (Messe Noire: Live Assault) + 01:21:18 (Messe Noire: Live Satanist) + 00:36:28 (Бонусы The Satanist: Cinematic Archive)
picСостав: Adam "Nergal" Darski – lead vocals, guitars; Zbigniew "Inferno" Promiński – drums; Tomasz "Orion" Wróblewski – bass, backing vocals; Patryk "Seth" Sztyber – guitars, backing vocals
picОписание
This live album released by the Polish metal band "Behemoth" contains a Blu-ray with two full concerts.
Треклист
Messe Noire: Live Assault (Official Bootleg, Recorded at Brutal Assault Festival in Jaromer, Czech Republic, 08.13.2016)
1. Blow Your Trumpets Gabriel
2. Furor Divinus
3. Messe Noire
4. Ora Pro Nobis Lucifer
5. Amen
6. The Satanist
7. Ben Sahar
8. In the Absence ov Light
9. O Father O Satan O Sun!
10. Ov Fire and the Void
11. Conquer All
12. Chant for Ezkaton 2000
Messe Noire: Live Satanist (Recorded at Progresja in Warsaw, Poland, 10.08.2016)
1. Blow Your Trumpets Gabriel
2. Furor Divinus
3. Messe Noire
4. Ora Pro Nobis Lucifer
5. Amen
6. The Satanist
7. Ben Sahar
8. In the Absence ov Light
9. O Father O Satan O Sun!
10. Ov Fire and the Void
11. Conquer All
12. Pure Evil and Hate
13. At the Left Hand ov God
14. Slaves Shall Serve
15. Chant for Ezkaton 2000
Бонусы The Satanist: Cinematic Archive (Production Videos)
1. Blow Your Trumpets Gabriel
2. Messe Noire
3. Ora Pro Nobis Lucifer
4. The Satanist
5. Ben Sahar
6. O Father O Satan O Sun!
BDInfo - Messe Noire: Live Satanist

Код:

Disc Title:     MESSE NOIRE LIVE SATANIST
Disc Size:      49 103 249 342 bytes
Protection:     AACS
BD-Java:        No
BDInfo:         0.7.1

Notes:         

BDINFO HOME:
Cinema Squid

INCLUDES FORUMS REPORT FOR:
AVS Forum Blu-ray Audio and Video Specifications Thread
   

WARNING: Report is incomplete because: Scan has not been run.

********************
PLAYLIST: 00000.MPLS
********************

<--- BEGIN FORUMS PASTE --->
[code]
                                                                                                                Total   Video                                             
Title                                                           Codec   Length  Movie Size      Disc Size       Bitrate Bitrate Main Audio Track                          Secondary Audio Track
-----                                                           ------  ------- --------------  --------------  ------- ------- ------------------                        ---------------------
00000.MPLS                                                      AVC     1:21:18 0               49 103 249 342  0,00    0,00    DTS-HD Master 5.1 (48kHz/24-bit)          LPCM 2.0 2304Kbps (48kHz/24-bit)
[/code]

[code]

DISC INFO:

Disc Title:     MESSE NOIRE LIVE SATANIST
Disc Size:      49 103 249 342 bytes
Protection:     AACS
BD-Java:        No
BDInfo:         0.7.1

PLAYLIST REPORT:

Name:                   00000.MPLS
Length:                 1:21:18.750 (h:m:s.ms)
Size:                   0 bytes
Total Bitrate:          0,00 Mbps

VIDEO:

Codec                   Bitrate             Description     
-----                   -------             -----------     
MPEG-4 AVC Video        0 kbps              1080p / 24 fps / 16:9 / High Profile 4.1

AUDIO:

Codec                           Language        Bitrate         Description     
-----                           --------        -------         -----------     
DTS-HD Master Audio             English         0 kbps          5.1 / 48 kHz / 24-bit (DTS Core: 5.1 / 48 kHz / 1509 kbps / 24-bit)
LPCM Audio                      English         2304 kbps       2.0 / 48 kHz / 2304 kbps / 24-bit

FILES:

Name            Time In         Length          Size            Total Bitrate   
----            -------         ------          ----            -------------   
00006.M2TS      0:00:00.000     1:21:18.750     0               0               

CHAPTERS:

Number          Time In         Length          Avg Video Rate  Max 1-Sec Rate  Max 1-Sec Time  Max 5-Sec Rate  Max 5-Sec Time  Max 10Sec Rate  Max 10Sec Time  Avg Frame Size  Max Frame Size  Max Frame Time 
------          -------         ------          --------------  --------------  --------------  --------------  --------------  --------------  --------------  --------------  --------------  -------------- 
1               0:00:00.000     0:06:18.125     0 kbps          0 kbps          00:00:00.000    0 kbps          00:00:00.000    0 kbps          00:00:00.000    0 bytes         0 bytes         00:00:00.000   
2               0:06:18.125     0:02:55.666     0 kbps          0 kbps          00:00:00.000    0 kbps          00:00:00.000    0 kbps          00:00:00.000    0 bytes         0 bytes         00:00:00.000   
3               0:09:13.791     0:05:06.958     0 kbps          0 kbps          00:00:00.000    0 kbps          00:00:00.000    0 kbps          00:00:00.000    0 bytes         0 bytes         00:00:00.000   
4               0:14:20.750     0:06:20.083     0 kbps          0 kbps          00:00:00.000    0 kbps          00:00:00.000    0 kbps          00:00:00.000    0 bytes         0 bytes         00:00:00.000   
5               0:20:40.833     0:03:55.291     0 kbps          0 kbps          00:00:00.000    0 kbps          00:00:00.000    0 kbps          00:00:00.000    0 bytes         0 bytes         00:00:00.000   
6               0:24:36.125     0:06:44.791     0 kbps          0 kbps          00:00:00.000    0 kbps          00:00:00.000    0 kbps          00:00:00.000    0 bytes         0 bytes         00:00:00.000   
7               0:31:20.916     0:05:33.583     0 kbps          0 kbps          00:00:00.000    0 kbps          00:00:00.000    0 kbps          00:00:00.000    0 bytes         0 bytes         00:00:00.000   
8               0:36:54.500     0:05:02.125     0 kbps          0 kbps          00:00:00.000    0 kbps          00:00:00.000    0 kbps          00:00:00.000    0 bytes         0 bytes         00:00:00.000   
9               0:41:56.625     0:10:23.083     0 kbps          0 kbps          00:00:00.000    0 kbps          00:00:00.000    0 kbps          00:00:00.000    0 bytes         0 bytes         00:00:00.000   
10              0:52:19.708     0:05:20.875     0 kbps          0 kbps          00:00:00.000    0 kbps          00:00:00.000    0 kbps          00:00:00.000    0 bytes         0 bytes         00:00:00.000   
11              0:57:40.583     0:04:27.458     0 kbps          0 kbps          00:00:00.000    0 kbps          00:00:00.000    0 kbps          00:00:00.000    0 bytes         0 bytes         00:00:00.000   
12              1:02:08.041     0:04:04.750     0 kbps          0 kbps          00:00:00.000    0 kbps          00:00:00.000    0 kbps          00:00:00.000    0 bytes         0 bytes         00:00:00.000   
13              1:06:12.791     0:05:12.916     0 kbps          0 kbps          00:00:00.000    0 kbps          00:00:00.000    0 kbps          00:00:00.000    0 bytes         0 bytes         00:00:00.000   
14              1:11:25.708     0:03:43.291     0 kbps          0 kbps          00:00:00.000    0 kbps          00:00:00.000    0 kbps          00:00:00.000    0 bytes         0 bytes         00:00:00.000   
15              1:15:09.000     0:06:09.750     0 kbps          0 kbps          00:00:00.000    0 kbps          00:00:00.000    0 kbps          00:00:00.000    0 bytes         0 bytes         00:00:00.000   

STREAM DIAGNOSTICS:

File            PID             Type            Codec           Language                Seconds                 Bitrate                 Bytes           Packets         
----            ---             ----            -----           --------                --------------          --------------          -------------   -----           
00006.M2TS      4113 (0x1011)   0x1B            AVC                                     0                       0                       0               0               
00006.M2TS      4352 (0x1100)   0x86            DTS-HD MA       eng (English)           0                       0                       0               0               
00006.M2TS      4353 (0x1101)   0x80            LPCM            eng (English)           0                       0                       0               0               

[/code]
<---- END FORUMS PASTE ---->

QUICK SUMMARY:

Disc Title: MESSE NOIRE LIVE SATANIST
Disc Size: 49 103 249 342 bytes
Protection: AACS
BD-Java: No
Playlist: 00000.MPLS
Size: 0 bytes
Length: 1:21:18.750
Total Bitrate: 0,00 Mbps
Video: MPEG-4 AVC Video / 0 kbps / 1080p / 24 fps / 16:9 / High Profile 4.1
Audio: English / DTS-HD Master Audio / 5.1 / 48 kHz / 24-bit (DTS Core: 5.1 / 48 kHz / 1509 kbps / 24-bit)
Audio: English / LPCM Audio / 2.0 / 48 kHz / 2304 kbps / 24-bit
BDInfo - Messe Noire: Live Assault

Код:

Disc Title:     MESSE NOIRE LIVE SATANIST
Disc Size:      49 103 249 342 bytes
Protection:     AACS
BD-Java:        No
BDInfo:         0.7.1

Notes:         

BDINFO HOME:
  Cinema Squid

INCLUDES FORUMS REPORT FOR:
AVS Forum Blu-ray Audio and Video Specifications Thread
 

WARNING: Report is incomplete because: Scan has not been run.

********************
PLAYLIST: 00015.MPLS
********************

<--- BEGIN FORUMS PASTE --->
[code]
                                                                                                                Total   Video                                             
Title                                                           Codec   Length  Movie Size      Disc Size       Bitrate Bitrate Main Audio Track                          Secondary Audio Track
-----                                                           ------  ------- --------------  --------------  ------- ------- ------------------                        ---------------------
00015.MPLS                                                      AVC     1:07:45 0               49 103 249 342  0,00    0,00    DTS-HD Master 5.1 (48kHz/24-bit)          LPCM 2.0 2304Kbps (48kHz/24-bit)
[/code]

[code]

DISC INFO:

Disc Title:     MESSE NOIRE LIVE SATANIST
Disc Size:      49 103 249 342 bytes
Protection:     AACS
BD-Java:        No
BDInfo:         0.7.1

PLAYLIST REPORT:

Name:                   00015.MPLS
Length:                 1:07:45.000 (h:m:s.ms)
Size:                   0 bytes
Total Bitrate:          0,00 Mbps

VIDEO:

Codec                   Bitrate             Description     
-----                   -------             -----------     
MPEG-4 AVC Video        0 kbps              1080p / 24 fps / 16:9 / High Profile 4.1

AUDIO:

Codec                           Language        Bitrate         Description     
-----                           --------        -------         -----------     
DTS-HD Master Audio             English         0 kbps          5.1 / 48 kHz / 24-bit (DTS Core: 5.1 / 48 kHz / 1509 kbps / 24-bit)
LPCM Audio                      English         2304 kbps       2.0 / 48 kHz / 2304 kbps / 24-bit

FILES:

Name            Time In         Length          Size            Total Bitrate   
----            -------         ------          ----            -------------   
00007.M2TS      0:00:00.000     1:07:45.000     0               0               

CHAPTERS:

Number          Time In         Length          Avg Video Rate  Max 1-Sec Rate  Max 1-Sec Time  Max 5-Sec Rate  Max 5-Sec Time  Max 10Sec Rate  Max 10Sec Time  Avg Frame Size  Max Frame Size  Max Frame Time 
------          -------         ------          --------------  --------------  --------------  --------------  --------------  --------------  --------------  --------------  --------------  -------------- 
1               0:00:00.000     0:06:44.750     0 kbps          0 kbps          00:00:00.000    0 kbps          00:00:00.000    0 kbps          00:00:00.000    0 bytes         0 bytes         00:00:00.000   
2               0:06:44.750     0:03:23.083     0 kbps          0 kbps          00:00:00.000    0 kbps          00:00:00.000    0 kbps          00:00:00.000    0 bytes         0 bytes         00:00:00.000   
3               0:10:07.833     0:04:38.833     0 kbps          0 kbps          00:00:00.000    0 kbps          00:00:00.000    0 kbps          00:00:00.000    0 bytes         0 bytes         00:00:00.000   
4               0:14:46.666     0:06:10.125     0 kbps          0 kbps          00:00:00.000    0 kbps          00:00:00.000    0 kbps          00:00:00.000    0 bytes         0 bytes         00:00:00.000   
5               0:20:56.791     0:04:01.833     0 kbps          0 kbps          00:00:00.000    0 kbps          00:00:00.000    0 kbps          00:00:00.000    0 bytes         0 bytes         00:00:00.000   
6               0:24:58.625     0:06:36.500     0 kbps          0 kbps          00:00:00.000    0 kbps          00:00:00.000    0 kbps          00:00:00.000    0 bytes         0 bytes         00:00:00.000   
7               0:31:35.125     0:05:32.583     0 kbps          0 kbps          00:00:00.000    0 kbps          00:00:00.000    0 kbps          00:00:00.000    0 bytes         0 bytes         00:00:00.000   
8               0:37:07.708     0:04:57.458     0 kbps          0 kbps          00:00:00.000    0 kbps          00:00:00.000    0 kbps          00:00:00.000    0 bytes         0 bytes         00:00:00.000   
9               0:42:05.166     0:09:40.750     0 kbps          0 kbps          00:00:00.000    0 kbps          00:00:00.000    0 kbps          00:00:00.000    0 bytes         0 bytes         00:00:00.000   
10              0:51:45.916     0:04:49.291     0 kbps          0 kbps          00:00:00.000    0 kbps          00:00:00.000    0 kbps          00:00:00.000    0 bytes         0 bytes         00:00:00.000   
11              0:56:35.208     0:04:52.291     0 kbps          0 kbps          00:00:00.000    0 kbps          00:00:00.000    0 kbps          00:00:00.000    0 bytes         0 bytes         00:00:00.000   
12              1:01:27.500     0:06:17.500     0 kbps          0 kbps          00:00:00.000    0 kbps          00:00:00.000    0 kbps          00:00:00.000    0 bytes         0 bytes         00:00:00.000   

STREAM DIAGNOSTICS:

File            PID             Type            Codec           Language                Seconds                 Bitrate                 Bytes           Packets         
----            ---             ----            -----           --------                --------------          --------------          -------------   -----           
00007.M2TS      4113 (0x1011)   0x1B            AVC                                     0                       0                       0               0               
00007.M2TS      4352 (0x1100)   0x86            DTS-HD MA       eng (English)           0                       0                       0               0               
00007.M2TS      4353 (0x1101)   0x80            LPCM            eng (English)           0                       0                       0               0               

[/code]
<---- END FORUMS PASTE ---->

QUICK SUMMARY:

Disc Title: MESSE NOIRE LIVE SATANIST
Disc Size: 49 103 249 342 bytes
Protection: AACS
BD-Java: No
Playlist: 00015.MPLS
Size: 0 bytes
Length: 1:07:45.000
Total Bitrate: 0,00 Mbps
Video: MPEG-4 AVC Video / 0 kbps / 1080p / 24 fps / 16:9 / High Profile 4.1
Audio: English / DTS-HD Master Audio / 5.1 / 48 kHz / 24-bit (DTS Core: 5.1 / 48 kHz / 1509 kbps / 24-bit)
Audio: English / LPCM Audio / 2.0 / 48 kHz / 2304 kbps / 24-bit
BDinfo - Бонусы The Satanist: Cinematic Archive (Production Videos)

Код:

Disc Title:     MESSE NOIRE LIVE SATANIST
Disc Size:      49 103 249 342 bytes
Protection:     AACS
BD-Java:        No
BDInfo:         0.7.1

Notes:         

BDINFO HOME:
  Cinema Squid

INCLUDES FORUMS REPORT FOR:
  AVS Forum Blu-ray Audio and Video Specifications Thread

WARNING: Report is incomplete because: Scan has not been run.

********************
PLAYLIST: 00002.MPLS
********************

<--- BEGIN FORUMS PASTE --->
[code]
                                                                                                                Total   Video                                             
Title                                                           Codec   Length  Movie Size      Disc Size       Bitrate Bitrate Main Audio Track                          Secondary Audio Track
-----                                                           ------  ------- --------------  --------------  ------- ------- ------------------                        ---------------------
00002.MPLS                                                      AVC     0:36:28 0               49 103 249 342  0,00    0,00    LPCM 2.0 1536Kbps (48kHz/16-bit)          LPCM 2.0 1536Kbps (48kHz/16-bit)
[/code]

[code]

DISC INFO:

Disc Title:     MESSE NOIRE LIVE SATANIST
Disc Size:      49 103 249 342 bytes
Protection:     AACS
BD-Java:        No
BDInfo:         0.7.1

PLAYLIST REPORT:

Name:                   00002.MPLS
Length:                 0:36:28.250 (h:m:s.ms)
Size:                   0 bytes
Total Bitrate:          0,00 Mbps

VIDEO:

Codec                   Bitrate             Description     
-----                   -------             -----------     
MPEG-4 AVC Video        0 kbps              1080p / 24 fps / 16:9 / High Profile 4.1

AUDIO:

Codec                           Language        Bitrate         Description     
-----                           --------        -------         -----------     
LPCM Audio                      English         1536 kbps       2.0 / 48 kHz / 1536 kbps / 16-bit
LPCM Audio                      English         1536 kbps       2.0 / 48 kHz / 1536 kbps / 16-bit

FILES:

Name            Time In         Length          Size            Total Bitrate   
----            -------         ------          ----            -------------   
00000.M2TS      0:00:00.000     0:04:57.541     0               0               
00012.M2TS      0:04:57.541     0:05:56.083     0               0               
00002.M2TS      0:10:53.625     0:06:32.541     0               0               
00003.M2TS      0:17:26.166     0:04:40.791     0               0               
00004.M2TS      0:22:06.958     0:05:58.208     0               0               
00005.M2TS      0:28:05.166     0:08:23.083     0               0               

CHAPTERS:

Number          Time In         Length          Avg Video Rate  Max 1-Sec Rate  Max 1-Sec Time  Max 5-Sec Rate  Max 5-Sec Time  Max 10Sec Rate  Max 10Sec Time  Avg Frame Size  Max Frame Size  Max Frame Time 
------          -------         ------          --------------  --------------  --------------  --------------  --------------  --------------  --------------  --------------  --------------  -------------- 
1               0:00:00.000     0:04:57.541     0 kbps          0 kbps          00:00:00.000    0 kbps          00:00:00.000    0 kbps          00:00:00.000    0 bytes         0 bytes         00:00:00.000   
2               0:04:57.541     0:05:56.083     0 kbps          0 kbps          00:00:00.000    0 kbps          00:00:00.000    0 kbps          00:00:00.000    0 bytes         0 bytes         00:00:00.000   
3               0:10:53.625     0:06:32.541     0 kbps          0 kbps          00:00:00.000    0 kbps          00:00:00.000    0 kbps          00:00:00.000    0 bytes         0 bytes         00:00:00.000   
4               0:17:26.166     0:04:40.791     0 kbps          0 kbps          00:00:00.000    0 kbps          00:00:00.000    0 kbps          00:00:00.000    0 bytes         0 bytes         00:00:00.000   
5               0:22:06.958     0:05:58.208     0 kbps          0 kbps          00:00:00.000    0 kbps          00:00:00.000    0 kbps          00:00:00.000    0 bytes         0 bytes         00:00:00.000   
6               0:28:05.166     0:08:23.083     0 kbps          0 kbps          00:00:00.000    0 kbps          00:00:00.000    0 kbps          00:00:00.000    0 bytes         0 bytes         00:00:00.000   

STREAM DIAGNOSTICS:

File            PID             Type            Codec           Language                Seconds                 Bitrate                 Bytes           Packets         
----            ---             ----            -----           --------                --------------          --------------          -------------   -----           
00000.M2TS      4113 (0x1011)   0x1B            AVC                                     0                       0                       0               0               
00000.M2TS      4352 (0x1100)   0x80            LPCM            eng (English)           0                       0                       0               0               
00000.M2TS      4353 (0x1101)   0x80            LPCM            eng (English)           0                       0                       0               0               
00012.M2TS      4113 (0x1011)   0x1B            AVC                                     0                       0                       0               0               
00012.M2TS      4352 (0x1100)   0x80            LPCM            eng (English)           0                       0                       0               0               
00012.M2TS      4353 (0x1101)   0x80            LPCM            eng (English)           0                       0                       0               0               
00002.M2TS      4113 (0x1011)   0x1B            AVC                                     0                       0                       0               0               
00002.M2TS      4352 (0x1100)   0x80            LPCM            eng (English)           0                       0                       0               0               
00002.M2TS      4353 (0x1101)   0x80            LPCM            eng (English)           0                       0                       0               0               
00003.M2TS      4113 (0x1011)   0x1B            AVC                                     0                       0                       0               0               
00003.M2TS      4352 (0x1100)   0x80            LPCM            eng (English)           0                       0                       0               0               
00003.M2TS      4353 (0x1101)   0x80            LPCM            eng (English)           0                       0                       0               0               
00004.M2TS      4113 (0x1011)   0x1B            AVC                                     0                       0                       0               0               
00004.M2TS      4352 (0x1100)   0x80            LPCM            eng (English)           0                       0                       0               0               
00004.M2TS      4353 (0x1101)   0x80            LPCM            eng (English)           0                       0                       0               0               
00005.M2TS      4113 (0x1011)   0x1B            AVC                                     0                       0                       0               0               
00005.M2TS      4352 (0x1100)   0x80            LPCM            eng (English)           0                       0                       0               0               
00005.M2TS      4353 (0x1101)   0x80            LPCM            eng (English)           0                       0                       0               0               

[/code]
<---- END FORUMS PASTE ---->

QUICK SUMMARY:

Disc Title: MESSE NOIRE LIVE SATANIST
Disc Size: 49 103 249 342 bytes
Protection: AACS
BD-Java: No
Playlist: 00002.MPLS
Size: 0 bytes
Length: 0:36:28.250
Total Bitrate: 0,00 Mbps
Video: MPEG-4 AVC Video / 0 kbps / 1080p / 24 fps / 16:9 / High Profile 4.1
Audio: English / LPCM Audio / 2.0 / 48 kHz / 1536 kbps / 16-bit
Audio: English / LPCM Audio / 2.0 / 48 kHz / 1536 kbps / 16-bit
Скриншоты - Messe Noire: Live Satanist
Скриншоты - Messe Noire: Live Assault
Скриншоты - Бонусы The Satanist: Cinematic Archive (Production Videos)
Качество: Blu-ray 1080р
Контейнер: BDMV
Видео кодек: MPEG-4 AVC
Аудио колек: DTS, LPCM
• Messe Noire: Live Satanist (Recorded at Progresja in Warsaw, Poland, 10.08.2016)
MPEG-4 AVC Video / 1920x1080 / 24 fps / 16:9 / High Profile 4.1
DTS-HD Master Audio / English / 5.1 / 48 kHz / 24-bit (DTS Core: 5.1 / 48 kHz / 1509 kbps / 24-bit)
LPCM Audio / English / 2304 kbps / 2.0 / 48 kHz / 2304 kbps / 24-bit
• Messe Noire: Live Assault (Official Bootleg, Recorded at Brutal Assault Festival in Jaromer, Czech Republic, 08.13.2016)
MPEG-4 AVC Video / 1920x1080 / 24 fps / 16:9 / High Profile 4.1
DTS-HD Master Audio / English 5.1 / 48 kHz / 24-bit (DTS Core: 5.1 / 48 kHz / 1509 kbps / 24-bit)
LPCM Audio / English / 2304 kbps / 2.0 / 48 kHz / 2304 kbps / 24-bit
• Бонусы The Satanist: Cinematic Archive (Production Videos)
MPEG-4 AVC Video / 1920x1080 / 24 fps / 16:9 / High Profile 4.1
LPCM Audio / English / 1536 kbps / 2.0 / 48 kHz / 1536 kbps / 16-bit
LPCM Audio / English / 1536 kbps / 2.0 / 48 kHz / 1536 kbps / 16-bit
pic
MESSE NOIRE LIVE SATANIST.torrent
 ЗОЛОТАЯ РАЗДАЧА! СКАЧАННОЕ НЕ ЗАСЧИТЫВАЕТСЯ! 
Вечный
Трекер: Зарегистрирован

magnet ссылка

 


Скачать .torrent

234 KB

Статус: проверено (by Cherepah в 06-Янв-19 20:17)
Зарегистрирован: 06-Янв-19 18:44
Скачан: 6 раз
Размер: 45.73 GB | 
Поблагодарили:
Скачать Behemoth - Messe Noire: Live Satanist [2018 г., Black Metal, Death Metal, Blu-ray, 1080p] торрент
 


Похожие раздачи

Текущее время: 22-Мар 15:13

Часовой пояс: GMT + 3



Вы не можете начинать темы
Вы не можете отвечать на сообщения
Вы не можете редактировать свои сообщения
Вы не можете удалять свои сообщения
Вы не можете голосовать в опросах
Вы не можете прикреплять файлы к сообщениям
Вы не можете скачивать файлы