Loading...
Error
 

Скачать торрент Extreme Nature Collection (IMAX) / Экстремальная коллекция природы ( Дэвид Кларк)[2013-2014,Документальный, научно-популярный, путешествие, видовой, природа,BDRip 2160p][HEVC][Eng]

 
Автор Сообщение

brother225

post 10-Янв-19 21:50

pic
Extreme Nature Collection (IMAX) / Экстремальная коллекция природы

Год выпуска: 2013-2014
Страна: Франция, США
Жанр: Документальный, научно-популярный, путешествие, видовой, природа
Продолжительность: 3 x ~ 00:40:00
Перевод: отсутствует
Субтитры: отсутствуют
Режиссёр: Аластер Фовергилл, Марк Линфилд
В ролях: Кристофер Пламмер, Тревор Валле, Кристоф Вальтер
Описание: Неправильно представленная, оскорбленная и находящаяся на грани исчезновения, великая белая акула - знаковый хищник: существо, которое мы любим бояться. Великая Белая Акула исследует великое белое место в наших фантазиях, в наших страхах и в реальности своей роли на вершине океанской пищевой цепи. Фильм будет сосредоточен на ключевых точках агрегации по всему миру: Мексике, Южной Африке, Лос-Анджелесе и Новой Зеландии. Ключевые фигуры в истории исследований акул, люди, чья жизнь изменилась при контакте с великим белым, расскажут нам об их опыте, кульминацией которого стало непосредственное столкновение между человеком и акулой.
Качество: BDRip 2160p
Формат: MKV
Видео кодек:x265
Аудио кодек: AC3
Видео: HEVC 3840х2160, 23.976 fps, 22-36.2 Mb/s ,0.182 bpp,10bit
Аудио: Английский: AC3, 6 ch , 48 KHz 640 Kb/s
MediaInfo
Complete name : H:\мои раздачи\Extreme Nature Collection\Great.White.Shark.mkv
Format : Matroska
Format version : Version 4
File size : 10.4 GiB
Duration : 41 min 2 s
Overall bit rate : 36.4 Mb/s
Encoded date : UTC 2019-01-09 20:50:35
Writing application : mkvmerge v30.1.0 ('Forever And More') 64-bit
Writing library : libebml v1.3.6 + libmatroska v1.4.9

Video
ID : 1
Format : HEVC
Format/Info : High Efficiency Video Coding
Format profile : Main [email protected]@High
Codec ID : V_MPEGH/ISO/HEVC
Duration : 40 min 35 s
Bit rate : 36.2 Mb/s
Width : 3 840 pixels
Height : 2 160 pixels
Display aspect ratio : 16:9
Frame rate mode : Constant
Frame rate : 23.976 (24000/1001) FPS
Color space : YUV
Chroma subsampling : 4:2:0 (Type 2)
Bit depth : 10 bits
Bits/(Pixel*Frame) : 0.182
Stream size : 10.3 GiB (98%)
Writing library : x265 3.0_RC+4-8aebc58efe5c:[Windows][MSVC 1920][64 bit] 10bit
Default : Yes
Forced : No

Audio
ID : 2
Format : AC-3
Format/Info : Audio Coding 3
Commercial name : Dolby Digital
Codec ID : A_AC3
Duration : 41 min 2 s
Bit rate mode : Constant
Bit rate : 640 kb/s
Channel(s) : 6 channels
Channel layout : L R C LFE Ls Rs
Sampling rate : 48.0 kHz
Frame rate : 31.250 FPS (1536 SPF)
Bit depth : 16 bits
Compression mode : Lossy
Stream size : 188 MiB (2%)
Service kind : Complete Main
Default : Yes
Forced : No
Скриншоты
Extreme Nature Collection.torrent
 ЗОЛОТАЯ РАЗДАЧА! СКАЧАННОЕ НЕ ЗАСЧИТЫВАЕТСЯ! 
Вечный
Трекер: Зарегистрирован

magnet ссылка

 


Скачать .torrent

130 KB

Статус: проверено (by Cherepah в 10-Янв-19 21:57)
Зарегистрирован: 10-Янв-19 21:50
Скачан: 30 раз
Размер: 26.03 GB | 
Поблагодарили:
Скачать Extreme Nature Collection (IMAX) / Экстремальная коллекция природы ( Дэвид Кларк)[2013-2014,Документальный, научно-популярный, путешествие, видовой, природа,BDRip 2160p][HEVC][Eng] торрент
 


Похожие раздачи

Текущее время: 22-Янв 21:42

Часовой пояс: GMT + 3



Вы не можете начинать темы
Вы не можете отвечать на сообщения
Вы не можете редактировать свои сообщения
Вы не можете удалять свои сообщения
Вы не можете голосовать в опросах
Вы не можете прикреплять файлы к сообщениям
Вы не можете скачивать файлы