Loading...
Error
 

Скачать торрент (Hard Rock) Triumph - Collections (2CD) (Japanese Edition) - 1986, 1992 [FLAC, image +.cue, lossless]

 
Автор Сообщение

trygg

post 11-Янв-19 11:36


Triumph - Collections (2CD) (Japanese Edition) - 1986, 1992


pic
Год издания: 1986, 1992
Страна: Mississauga, Ontario, Canada pic
Жанр: Hard Rock
Продолжительность: 01:30:22
Лейбл издания: Polystar / Victory
Страна-выпуска диска: Japan pic
Номер по каталогу: PSCW-5331, VICP-5243
Формат: FLAC
Битрейт аудио: Lossless
Тип рипа: image +.cue
Наличие сканов в содержимом раздачи: да

pic
Трэклист
Triumph - The Sport Of Kings - 1986 | 00:42:57
pic
pic
01. Tears In The Rain (3:55)
02. Somebody's Out There (4:05)
03. What Rules My Heart (3:55)
04. If Only (4:04)
05. Hooked On You (3:24)
06. Take A Stand (4:33)
07. Just One Night (3:42)
08. Embrujo (Instrumental) (1:29)
09. Play With The Fire (5:20)
10. Don't Love Anybody Else But Me (3:54)
11. In The Middle Of The Night (4:35)
Triumph - Edge Of Excess - 1992 | 00:47:25
pic
pic
01. Child Of The City (5:04)
02. Troublemaker (4:07)
03. It's Over (4:22)
04. Edge Of Excess (4:44)
05. Turn My Back On Love (4:06)
06. Ridin' High Again (4:56)
07. Black Sheep (5:25)
08. Boy's Night Out (5:19)
09. Somewhere Tonight (4:35)
10. Love In A Minute (4:47)

pic
Лог создания рипа
Triumph - The Sport Of Kings - 1986

Код:

Exact Audio Copy V1.3 from 2. September 2016

Отчёт EAC об извлечении, выполненном 23. декабря 2018, 15:59

Triumph / The Sport Of Kings (PSCW-5331)

Дисковод: PLEXTOR BD-R  PX-B950SA   Adapter: 1  ID: 0

Режим чтения                 : Достоверность
Использование точного потока : Да
Отключение кэша аудио        : Да
Использование указателей C2  : Нет

Коррекция смещения при чтении                     : 6
Способность читать области Lead-in и Lead-out     : Нет
Заполнение пропущенных сэмплов тишиной            : Да
Удаление блоков с тишиной в начале и конце        : Нет
При вычислениях CRC использовались нулевые сэмплы : Да
Интерфейс                                         : Встроенный Win32-интерфейс для Win NT/2000

Выходной формат          : Пользовательский кодировщик
Выбранный битрейт        : 1024 kBit/s
Качество                 : Высокий
Добавление ID3-тега      : Нет
Утилита сжатия           : C:\Program Files (x86)\Exact Audio Copy\FLAC\FLAC.EXE
Дополнительные параметры : -6 -V -T "ARTIST=%artist%" -T "TITLE=%title%" -T "ALBUM=%albumtitle%" -T "DATE=%year%" -T "TRACKNUMBER=%tracknr%" -T "GENRE=%genre%" -T "COMMENT=%comment%" -T "BAND=%albuminterpret%" -T "ALBUMARTIST=%albuminterpret%" -T "COMPOSER=%composer%" %haslyrics%--tag-from-file=LYRICS="%lyricsfile%"%haslyrics% -T "DISCNUMBER=%cdnumber%" -T "TOTALDISCS=%totalcds%" -T "TOTALTRACKS=%numtracks%" %hascover%--picture="%coverfile%"%hascover% %source% -o %dest%

TOC извлечённого CD

     Трек |   Старт  | Длительность | Начальный сектор | Конечный сектор
    ---------------------------------------------------------------------
       1  |  0:00.00 |    3:55.15   |           0      |      17639
       2  |  3:55.15 |    4:05.32   |       17640      |      36046
       3  |  8:00.47 |    3:54.55   |       36047      |      53651
       4  | 11:55.27 |    4:03.38   |       53652      |      71914
       5  | 15:58.65 |    3:24.25   |       71915      |      87239
       6  | 19:23.15 |    4:33.15   |       87240      |     107729
       7  | 23:56.30 |    3:41.40   |      107730      |     124344
       8  | 27:37.70 |    1:29.30   |      124345      |     131049
       9  | 29:07.25 |    5:20.22   |      131050      |     155071
      10  | 34:27.47 |    3:54.33   |      155072      |     172654
      11  | 38:22.05 |    4:35.00   |      172655      |     193279

Характеристики диапазона извлечения и сообщения об ошибках

Выбранный диапазон

     Имя файла G:\RIP\Triumph 1986 Japanese Pressing FLAC by alzal\Triumph - The Sport Of Kings (PSCW-5331).wav

     Пиковый уровень 100.0 %
     Скорость извлечения 8.0 X
     Качество диапазона 100.0 %
     CRC теста 4E8D7AED
     CRC копии 4E8D7AED
     Копирование... OK

Ошибок не произошло

AccurateRip: сводка

Трек  1  отсутствует в базе данных
Трек  2  отсутствует в базе данных
Трек  3  отсутствует в базе данных
Трек  4  отсутствует в базе данных
Трек  5  отсутствует в базе данных
Трек  6  отсутствует в базе данных
Трек  7  отсутствует в базе данных
Трек  8  отсутствует в базе данных
Трек  9  отсутствует в базе данных
Трек 10  отсутствует в базе данных
Трек 11  отсутствует в базе данных

Ни одного трека нет в базе AccurateRip

Конец отчёта
Triumph - Edge Of Excess - 1992

Код:

Exact Audio Copy V1.3 from 2. September 2016

Отчёт EAC об извлечении, выполненном 23. декабря 2018, 17:21

Triumph / Edge Of Excess (VICP-5243)

Дисковод: PLEXTOR BD-R  PX-B950SA   Adapter: 1  ID: 0

Режим чтения                 : Достоверность
Использование точного потока : Да
Отключение кэша аудио        : Да
Использование указателей C2  : Нет

Коррекция смещения при чтении                     : 6
Способность читать области Lead-in и Lead-out     : Нет
Заполнение пропущенных сэмплов тишиной            : Да
Удаление блоков с тишиной в начале и конце        : Нет
При вычислениях CRC использовались нулевые сэмплы : Да
Интерфейс                                         : Встроенный Win32-интерфейс для Win NT/2000

Выходной формат          : Пользовательский кодировщик
Выбранный битрейт        : 1024 kBit/s
Качество                 : Высокий
Добавление ID3-тега      : Нет
Утилита сжатия           : C:\Program Files (x86)\Exact Audio Copy\FLAC\FLAC.EXE
Дополнительные параметры : -6 -V -T "ARTIST=%artist%" -T "TITLE=%title%" -T "ALBUM=%albumtitle%" -T "DATE=%year%" -T "TRACKNUMBER=%tracknr%" -T "GENRE=%genre%" -T "COMMENT=%comment%" -T "BAND=%albuminterpret%" -T "ALBUMARTIST=%albuminterpret%" -T "COMPOSER=%composer%" %haslyrics%--tag-from-file=LYRICS="%lyricsfile%"%haslyrics% -T "DISCNUMBER=%cdnumber%" -T "TOTALDISCS=%totalcds%" -T "TOTALTRACKS=%numtracks%" %hascover%--picture="%coverfile%"%hascover% %source% -o %dest%

TOC извлечённого CD

     Трек |   Старт  | Длительность | Начальный сектор | Конечный сектор
    ---------------------------------------------------------------------
       1  |  0:00.37 |    5:04.23   |          37      |      22859
       2  |  5:04.60 |    4:06.42   |       22860      |      41351
       3  |  9:11.27 |    4:21.55   |       41352      |      60981
       4  | 13:33.07 |    4:44.33   |       60982      |      82314
       5  | 18:17.40 |    4:06.15   |       82315      |     100779
       6  | 22:23.55 |    4:56.05   |      100780      |     122984
       7  | 27:19.60 |    5:25.25   |      122985      |     147384
       8  | 32:45.10 |    5:18.72   |      147385      |     171306
       9  | 38:04.07 |    4:35.13   |      171307      |     191944
      10  | 42:39.20 |    4:46.40   |      191945      |     213434

Характеристики диапазона извлечения и сообщения об ошибках

Выбранный диапазон

     Имя файла G:\RIP\Triumph 1992 Japanese Pressing FLAC by alzal\Triumph - Edge Of Excess (VICP-5243).wav

     Пиковый уровень 100.0 %
     Скорость извлечения 3.2 X
     Качество диапазона 100.0 %
     CRC теста 1AFDC4FD
     CRC копии 1AFDC4FD
     Копирование... OK

Ошибок не произошло

AccurateRip: сводка

Трек  1  : извлечено точно (доверие 1)  [1F9677A8]  (AR v2)
Трек  2  : извлечено точно (доверие 1)  [EF6292F3]  (AR v2)
Трек  3  : извлечено точно (доверие 1)  [1E096BCB]  (AR v2)
Трек  4  : извлечено точно (доверие 1)  [064C7644]  (AR v2)
Трек  5  : извлечено точно (доверие 1)  [410DA7E4]  (AR v2)
Трек  6  : извлечено точно (доверие 1)  [D3AB9A21]  (AR v2)
Трек  7  : извлечено точно (доверие 1)  [AC466E56]  (AR v2)
Трек  8  : извлечено точно (доверие 1)  [BDBB2226]  (AR v2)
Трек  9  : извлечено точно (доверие 1)  [394A67AD]  (AR v2)
Трек 10  : извлечено точно (доверие 1)  [74F55B3A]  (AR v2)

Все треки извлечены точно

Конец отчёта
Индексная карта (non-compilant .cue)
Triumph - The Sport Of Kings - 1986

Код:

REM GENRE "Melodic Hard Rock | AOR"
REM DATE 1986
REM DISCID 9B0A110B
REM COMMENT "ExactAudioCopy v1.3"
PERFORMER "Triumph"
TITLE "The Sport Of Kings (PSCW-5331)"
REM COMPOSER ""
FILE "Triumph - The Sport Of Kings (PSCW-5331).flac" WAVE
  TRACK 01 AUDIO
    TITLE "Tears In The Rain"
    PERFORMER "Triumph"
    REM COMPOSER ""
    INDEX 01 00:00:00
  TRACK 02 AUDIO
    TITLE "Somebody's Out There"
    PERFORMER "Triumph"
    REM COMPOSER ""
    INDEX 01 03:55:15
  TRACK 03 AUDIO
    TITLE "What Rules My Heart"
    PERFORMER "Triumph"
    REM COMPOSER ""
    INDEX 00 07:59:32
    INDEX 01 08:00:47
  TRACK 04 AUDIO
    TITLE "If Only"
    PERFORMER "Triumph"
    REM COMPOSER ""
    INDEX 00 11:54:60
    INDEX 01 11:55:27
  TRACK 05 AUDIO
    TITLE "Hooked On You"
    PERFORMER "Triumph"
    REM COMPOSER ""
    INDEX 01 15:58:65
  TRACK 06 AUDIO
    TITLE "Take A Stand"
    PERFORMER "Triumph"
    REM COMPOSER ""
    INDEX 00 19:21:65
    INDEX 01 19:23:15
  TRACK 07 AUDIO
    TITLE "Just One Night"
    PERFORMER "Triumph"
    REM COMPOSER ""
    INDEX 00 23:55:25
    INDEX 01 23:56:30
  TRACK 08 AUDIO
    TITLE "Embrujo (Instrumental)"
    PERFORMER "Triumph"
    REM COMPOSER ""
    INDEX 00 27:36:62
    INDEX 01 27:37:70
  TRACK 09 AUDIO
    TITLE "Play With The Fire"
    PERFORMER "Triumph"
    REM COMPOSER ""
    INDEX 01 29:07:25
  TRACK 10 AUDIO
    TITLE "Don't Love Anybody Else But Me"
    PERFORMER "Triumph"
    REM COMPOSER ""
    INDEX 00 34:25:50
    INDEX 01 34:27:47
  TRACK 11 AUDIO
    TITLE "In The Middle Of The Night"
    PERFORMER "Triumph"
    REM COMPOSER ""
    INDEX 01 38:22:05
Triumph - Edge Of Excess - 1992

Код:

REM GENRE "Hard Rock"
REM DATE 1992
REM DISCID 890B1D0A
REM COMMENT "ExactAudioCopy v1.3"
PERFORMER "Triumph"
TITLE "Edge Of Excess (VICP-5243)"
REM COMPOSER ""
FILE "Triumph - Edge Of Excess (VICP-5243).flac" WAVE
  TRACK 01 AUDIO
    TITLE "Child Of The City"
    PERFORMER "Triumph"
    REM COMPOSER ""
    INDEX 00 00:00:00
    INDEX 01 00:00:37
  TRACK 02 AUDIO
    TITLE "Troublemaker"
    PERFORMER "Triumph"
    REM COMPOSER ""
    INDEX 01 05:04:60
  TRACK 03 AUDIO
    TITLE "It's Over"
    PERFORMER "Triumph"
    REM COMPOSER ""
    INDEX 01 09:11:27
  TRACK 04 AUDIO
    TITLE "Edge Of Excess"
    PERFORMER "Triumph"
    REM COMPOSER ""
    INDEX 01 13:33:07
  TRACK 05 AUDIO
    TITLE "Turn My Back On Love"
    PERFORMER "Triumph"
    REM COMPOSER ""
    INDEX 00 18:16:41
    INDEX 01 18:17:40
  TRACK 06 AUDIO
    TITLE "Ridin' High Again"
    PERFORMER "Triumph"
    REM COMPOSER ""
    INDEX 01 22:23:55
  TRACK 07 AUDIO
    TITLE "Black Sheep"
    PERFORMER "Triumph"
    REM COMPOSER ""
    INDEX 01 27:19:60
  TRACK 08 AUDIO
    TITLE "Boy's Night Out"
    PERFORMER "Triumph"
    REM COMPOSER ""
    INDEX 01 32:45:10
  TRACK 09 AUDIO
    TITLE "Somewhere Tonight"
    PERFORMER "Triumph"
    REM COMPOSER ""
    INDEX 01 38:04:07
  TRACK 10 AUDIO
    TITLE "Love In A Minute"
    PERFORMER "Triumph"
    REM COMPOSER ""
    INDEX 00 42:37:58
    INDEX 01 42:39:20

pic
для ознакомления:


pic
pic
Triumph.torrent
Трекер: Зарегистрирован

magnet ссылка

 


Скачать .torrent

20 KB

Статус: проверено (by Snowden в 11-Янв-19 12:13)
Зарегистрирован: 11-Янв-19 11:36
Скачан: 8 раз
Размер: 666 MB | 
Поблагодарили:
Скачать (Hard Rock) Triumph - Collections (2CD) (Japanese Edition) - 1986, 1992 [FLAC, image +.cue, lossless] торрент
 


Похожие раздачи

Текущее время: 22-Янв 21:43

Часовой пояс: GMT + 3



Вы не можете начинать темы
Вы не можете отвечать на сообщения
Вы не можете редактировать свои сообщения
Вы не можете удалять свои сообщения
Вы не можете голосовать в опросах
Вы не можете прикреплять файлы к сообщениям
Вы не можете скачивать файлы