Loading...
Error
 

Скачать торрент Рандеву с жизнью [ТВ-3] | Date a Live III (Мотонага Кэйтаро) [TV-1] [12 из 12] [JAP+RUS HSUB] [2019 г., боевик, этти, WEBRip 1080p]

 
Автор Сообщение

MoscowGolem

post 12-Янв-19 00:03

pic
pic

デート・ア・ライブIII | Date a Live III | Рандеву с жизнью [ТВ-3]

pic
Год выхода: 2019
Жанр: Боевик, Научная фантастика, Романтика , Сёнэн, Этти
Тип: TV
Продолжительность: 12 эп. по ~ 00:25:00
Количество серий: 12 из 12
Дата выпуска: c 11.01.2019 по 29.03.2019
Производство: Япония, студия J.C. Staff
Автор оригинала: Татибана Коси
Режиссер: Мотонага Кэйтаро
Ссылки: World-Art, ANN, AniDB, MyAnimeList, Сетка вещания

Перевод : Отсутствует.
Субтитры: русские (Wakanim.tv), неотключаемые.
Описание:

Продолжение популярной истории Шидо Ицуки, который познакомился с Токой (опаснейшим духом, ненавидящим людей) и должен был начать встречаться с ней, чтобы спасти человечество. Помимо Токи, юноша сблизился со многими привлекательными девушками: прилежной Оригами, агрессивной Куруми, жизнерадостной Котори и другими! Вместе они преодолели много преград и победили опаснейших врагов. Однако приключения наших героев ещё не окончены, и они снова возвращаются на экраны, чтобы порадовать зрителей, которые с огромным нетерпением ждали новый сезон!
Качество видео: WEBRip 1080p
Формат: mp4
Видео кодек: x264
Аудио кодек: AAC
Видео: AVC ([email protected]), 1920x1080 (16:9), ~23.976 fps, ~4.1 Mb/s
Аудио 1: AAC, 48.0 KHz, 128 kbps, 2 ch (Японский, Liden Films)
Скриншоты:
Скриншоты:
    
Эпизоды:
01. Седьмой дух
02. Найдёшь меня?
03. Ты и есть Нацуми
04. Перевоплощение
05. На грани отчаяния
06. Раскол
07. Обретённая сила
08. Король ужаса во мраке ночи
09. 5 лет назад, город Тэнгу
10. Другой мир, другая девушка
11. Ангел в звёздной ночи
12. Вперёд, завоюем Сидо!
Команда актеров дубляжа и переводчиков русской версии:
у Wakanim.tv на подряде на Рандеву с жизнью [ТВ-3] - ТО Студийная Банда Wakanim / перевод - Истари Комикс.
Дополнительная информация:
аниматорам там явно еду даже не давали))) будем ждать перерисовки))
Media Info
General
Unique ID : 0 (0x0)
Complete name : \\Date a Live III [2019] [WEBRip] [1080p] [JAP + RUS HSUB]\Date a Live III - 01 (WEBRip 1920x1080 x264 AAC Jap + Rus Sub).mp4
Format : MPEG-4
Format profile : Base Media
Codec ID : isom (isom/avc1)
File size : 699 MiB
Duration : 23 min 40 s
Overall bit rate mode : Variable
Overall bit rate : 4 128 kb/s

Video
ID : 1
Format : AVC
Format/Info : Advanced Video Codec
Format profile : [email protected]
Format settings : CABAC / 4 Ref Frames
Format settings, CABAC : Yes
Format settings, RefFrames : 4 frames
Format settings, GOP : M=4, N=48
Codec ID : avc1
Codec ID/Info : Advanced Video Coding
Duration : 23 min 40 s
Bit rate : 4 100 kb/s
Maximum bit rate : 13.5 Mb/s
Width : 1 920 pixels
Height : 1 080 pixels
Display aspect ratio : 16:9
Frame rate mode : Constant
Frame rate : 23.976 (24000/1001) FPS
Color space : YUV
Chroma subsampling : 4:2:0
Bit depth : 8 bits
Scan type : Progressive
Bits/(Pixel*Frame) : 0.082
Stream size : 677 MiB (97%)
Title : [wakanim]
Writing library : x264 core 155 r2721+211 1714ae4
Encoding settings : cabac=1 / ref=3 / deblock=1:0:0 / analyse=0x3:0x113 / me=hex / subme=6 / psy=1 / psy_rd=1.00:0.00 / mixed_ref=0 / me_range=16 / chroma_me=1 / trellis=1 / 8x8dct=1 / cqm=0 / deadzone=21,11 / fast_pskip=1 / chroma_qp_offset=-2 / threads=24 / lookahead_threads=4 / sliced_threads=0 / nr=0 / decimate=1 / interlaced=0 / bluray_compat=0 / constrained_intra=0 / bframes=3 / b_pyramid=2 / b_adapt=1 / b_bias=0 / direct=1 / weightb=1 / open_gop=0 / weightp=2 / keyint=48 / keyint_min=4 / scenecut=0 / intra_refresh=0 / rc_lookahead=40 / rc=abr / mbtree=1 / bitrate=4100 / ratetol=1.0 / qcomp=0.60 / qpmin=0 / qpmax=69 / qpstep=4 / vbv_maxrate=4700 / vbv_bufsize=23500 / nal_hrd=none / filler=0 / ip_ratio=1.40 / aq=1:1.00

Audio
ID : 2
Format : AAC
Format/Info : Advanced Audio Codec
Format profile : LC
Codec ID : mp4a-40-2
Duration : 23 min 40 s
Bit rate mode : Variable
Bit rate : 128 kb/s
Maximum bit rate : 135 kb/s
Channel(s) : 2 channels
Channel positions : Front: L R
Sampling rate : 48.0 kHz
Frame rate : 46.875 FPS (1024 SPF)
Compression mode : Lossy
Stream size : 21.7 MiB (3%)
Language : Japanese
Date a Live III (2019) (WEBRip) (1080p) (JAP + RUS HSUB).torrent
 СЕРЕБРЯНАЯ РАЗДАЧА! СКАЧАННОЕ ЗАСЧИТЫВАЕТСЯ ТОЛЬКО НАПОЛОВИНУ! 
Вечный
Трекер: Зарегистрирован

magnet ссылка

 


Скачать .torrent

43 KB

Статус: проверено (by Cherepah в 30-Мар-19 11:27)
Зарегистрирован: 30-Мар-19 02:24
Скачан: 32 раза
Размер: 8.29 GB | 
Поблагодарили:
Скачать Рандеву с жизнью [ТВ-3] | Date a Live III (Мотонага Кэйтаро) [TV-1] [12 из 12] [JAP+RUS HSUB] [2019 г., боевик, этти, WEBRip 1080p] торрент
 


Похожие раздачи

MoscowGolem

post 18-Янв-19 20:32 (спустя 6 дней)

эпизод 2 +

MoscowGolem

post 25-Янв-19 22:19 (спустя 7 дней)

эпизод 3 +

MoscowGolem

post 02-Фев-19 00:25 (спустя 7 дней)

эпизод 4 +

MoscowGolem

post 08-Фев-19 22:47 (спустя 6 дней)

эпизод 5 +

MoscowGolem

post 15-Фев-19 20:49 (спустя 6 дней)

эпизод 6 +

MoscowGolem

post 22-Фев-19 19:43 (спустя 6 дней)

эпизод 7 +

MoscowGolem

post 02-Мар-19 01:32 (спустя 7 дней)

эпизод 8 +

MoscowGolem

post 08-Мар-19 16:59 (спустя 6 дней)

эпизод 9 +

MoscowGolem

post 15-Мар-19 22:18 (спустя 7 дней)

эпизод 10 +

MoscowGolem

post 22-Мар-19 21:14 (спустя 6 дней)

эпизод 11 +

MoscowGolem

post 30-Мар-19 03:14 (спустя 7 дней)

эпизод 12 +
сезон закончился) ждем продолжения!

mayson95

post 30-Мар-19 08:49 (спустя 5 часов)

MoscowGolem
дубляж будет ?

MoscowGolem

post 30-Мар-19 17:38 (спустя 8 часов)

mayson95
уже

Текущее время: 26-Июн 23:06

Часовой пояс: GMT + 3



Вы не можете начинать темы
Вы не можете отвечать на сообщения
Вы не можете редактировать свои сообщения
Вы не можете удалять свои сообщения
Вы не можете голосовать в опросах
Вы не можете прикреплять файлы к сообщениям
Вы не можете скачивать файлы