Loading...
Error
 

Скачать торрент Госпожа Кагуя: в любви как на войне | Kaguya-sama wa Kokurasetai: Tensai-tachi no Ren`ai Zunousen (Омата Синъити) [TV-1] [12 из 12] [JAP+RUS HSUB] [2019 г., комедия, романтика, WEBRip 1080p]

 
Автор Сообщение

MoscowGolem

post 19-Янв-19 19:15

pic
pic

かぐや様は告らせたい ~天才たちの恋愛頭脳戦~ | Kaguya-sama wa Kokurasetai: Tensai-tachi no Ren`ai Zunousen | Госпожа Кагуя: в любви как на войне

pic
Год выхода: 2019
Жанр: Драма, Комедия, Романтика
Тип: TV
Продолжительность: 12 эп. по ~ 00:25:00
Количество серий: 12 из 12
Дата выпуска: c 12.01.2019 по 30.03.2019
Производство: Япония, студия A-1 Pictures Inc.
Автор оригинала: Акасака Ака
Режиссер: Омата Синъити
Ссылки: World-Art, ANN, AniDB, MyAnimeList


Перевод : Отсутствует.
Субтитры: русские (Wakanim.tv), неотключаемые.
Описание:

Высокое происхождение, привлекательная внешность, учёба в академии для будущей элиты страны… У Миюки и Кагуи было всё. Когда их избрали главой и заместителем главы ученического совета, только ленивый не говорил, что молодые люди будут чудесной парой. И хотя втайне герои считали так же, за целых полгода ни Миюки, ни Кагуя не открылись друг к другу — гордость мешала им сделать первый шаг. Со временем простая надежда на взаимность переросла в острое желание добиться признания, а любовь начала напоминать войну, в которой верх нужно одержать умом и хитростью!
Качество видео: WEBRip 1080p
Формат: mp4
Видео кодек: x264
Аудио кодек: AAC
Видео: AVC ([email protected]), 1920x1080 (16:9), ~23.976 fps, ~4.1 Mb/s
Аудио 1: AAC, 48.0 KHz, 128 kbps, 2 ch (Русский, Wakanim.tv)
Аудио 2: AAC, 48.0 KHz, 128 kbps, 2 ch (Японский, A-1 Pictures Inc.)
Скриншоты:
Скриншоты:
    
Эпизоды:
01. Пригласи меня в кино; Госпожа Кагуя ждёт, что её остановят; Госпожа Кагуя ждёт угощения
02. Госпожа Кагуя хочет попасть в друзья; Фудзиваре не сидится в школе; Миюки Сироганэ не хочет попасться
03. Миюки Сироганэ нечем похвастаться; Госпожа Кагуя хочет, чтобы её поняли; Госпожа Кагуя хочет прогуляться
04. Госпожа Кагуя хочет восхищаться; Совет хочет услышать слово; Госпожа Кагуя хочет получить сообщение; Миюки Сироганэ хочет пообщаться
05. Госпожа Кагуя хочет разобраться; Миюки Сироганэ хочет показать себя; Госпожа Кагуя хочет пройтись под зонтиком
06. Ю Исигами хочет выжить; Тика Фудзивара хочет устроить тест; Госпожа Кагуя хочет, чтобы на неё обратили внимание
07. Миюки Сироганэ хочет подработать; Госпожа Кагуя хочет позвать его в секцию; Госпожа Кагуя хочет сдержаться
08. Госпожа Кагуя хочет, чтобы её звали иначе; Миюки Сироганэ не уступит; И тут Ю Исигами закрыл глаза
09. Госпожа Кагуя хочет его подвезти; Тика Фудзивара хочет её навестить; О Кагуе Синомии, часть первая
10. Госпожа Кагуя не простит; Госпожа Кагуя хотела бы простить; Миюки Сироганэ не сидится в школе
11. Ай Хаясака хочет искупаться; Тике Фудзиваре страшно хочется поесть; Миюки Сироганэ хочет встретиться; Я не слышу салют, часть первая
12. Я не слышу салют, часть вторая; Госпожа Кагуя не хочет уклоняться
Команда актеров дубляжа и переводчиков русской версии:
у Wakanim.tv на подряде на Госпожа Кагуя - ТО Студийная Банда Wakanim / перевод - Истари Комикс.
Дополнительная информация:
в день выхода 1 серии анонсировали переиздание всех слаерсов)) на БД)) а там глядишь и продолжат!
Media Info
General
Unique ID : 0 (0x0)
Complete name : \\Kaguya-sama wa Kokurasetai [2019] [WEBRip] [1080p] [JAP + RUS HSUB]\Kaguya-sama wa Kokurasetai - Tensai-tachi no Renai Zunousen - 01 (WEBRip 1920x1080 x264 AAC Jap + Rus Sub).mp4
Format : MPEG-4
Format profile : Base Media
Codec ID : isom (isom/avc1)
File size : 750 MiB
Duration : 24 min 58 s
Overall bit rate mode : Variable
Overall bit rate : 4 198 kb/s

Video
ID : 1
Format : AVC
Format/Info : Advanced Video Codec
Format profile : [email protected]
Format settings : CABAC / 4 Ref Frames
Format settings, CABAC : Yes
Format settings, RefFrames : 4 frames
Codec ID : avc1
Codec ID/Info : Advanced Video Coding
Duration : 24 min 58 s
Bit rate : 4 100 kb/s
Maximum bit rate : 14.7 Mb/s
Width : 1 920 pixels
Height : 1 080 pixels
Display aspect ratio : 16:9
Frame rate mode : Constant
Frame rate : 23.976 (24000/1001) FPS
Color space : YUV
Chroma subsampling : 4:2:0
Bit depth : 8 bits
Scan type : Progressive
Bits/(Pixel*Frame) : 0.082
Stream size : 726 MiB (97%)
Title : [wakanim]
Writing library : x264 core 155 r2721+211 1714ae4
Encoding settings : cabac=1 / ref=3 / deblock=1:0:0 / analyse=0x3:0x113 / me=hex / subme=6 / psy=1 / psy_rd=1.00:0.00 / mixed_ref=0 / me_range=16 / chroma_me=1 / trellis=1 / 8x8dct=1 / cqm=0 / deadzone=21,11 / fast_pskip=1 / chroma_qp_offset=-2 / threads=24 / lookahead_threads=4 / sliced_threads=0 / nr=0 / decimate=1 / interlaced=0 / bluray_compat=0 / constrained_intra=0 / bframes=3 / b_pyramid=2 / b_adapt=1 / b_bias=0 / direct=1 / weightb=1 / open_gop=0 / weightp=2 / keyint=48 / keyint_min=4 / scenecut=0 / intra_refresh=0 / rc_lookahead=40 / rc=abr / mbtree=1 / bitrate=4100 / ratetol=1.0 / qcomp=0.60 / qpmin=0 / qpmax=69 / qpstep=4 / vbv_maxrate=4700 / vbv_bufsize=23500 / nal_hrd=none / filler=0 / ip_ratio=1.40 / aq=1:1.00

Audio
ID : 2
Format : AAC
Format/Info : Advanced Audio Codec
Format profile : LC
Codec ID : mp4a-40-2
Duration : 24 min 58 s
Bit rate mode : Variable
Bit rate : 128 kb/s
Maximum bit rate : 135 kb/s
Channel(s) : 2 channels
Channel positions : Front: L R
Sampling rate : 48.0 kHz
Frame rate : 46.875 FPS (1024 SPF)
Compression mode : Lossy
Stream size : 22.9 MiB (3%)
Language : Japanese
Kaguya-sama wa Kokurasetai (2019) (WEBRip) (1080p) (JAP + RUS HSUB).torrent
 СЕРЕБРЯНАЯ РАЗДАЧА! СКАЧАННОЕ ЗАСЧИТЫВАЕТСЯ ТОЛЬКО НАПОЛОВИНУ! 
Вечный
Трекер: Зарегистрирован

magnet ссылка

 


Скачать .torrent

44 KB

Статус: проверено (by Cherepah в 31-Мар-19 00:19)
Зарегистрирован: 30-Мар-19 23:41
Скачан: 63 раза
Размер: 8.48 GB | 
Поблагодарили:
Скачать Госпожа Кагуя: в любви как на войне | Kaguya-sama wa Kokurasetai: Tensai-tachi no Ren`ai Zunousen (Омата Синъити) [TV-1] [12 из 12] [JAP+RUS HSUB] [2019 г., комедия, романтика, WEBRip 1080p] торрент
 


Похожие раздачи

MoscowGolem

post 19-Янв-19 20:02 (спустя 46 минут)

Если не брать исекаи и гаремы то Кагуя как по мне - лучший тайтл зимы 2019г. ( а на втором месте про Кота на голове)) )
эдакая смесь Мистер и миссис Смит + Шерлок с Камбербэтчем
эпизод 2 +

MoscowGolem

post 26-Янв-19 19:47 (спустя 6 дней)

эпизод 3 +

MoscowGolem

post 03-Фев-19 00:02 (спустя 7 дней)

эпизод 4 +

MoscowGolem

post 10-Фев-19 00:36 (спустя 7 дней)

эпизод 5 +

MiGeL123

post 10-Фев-19 01:14 (спустя 38 минут)

Чет шляпа какая то))

MoscowGolem

post 10-Фев-19 01:42 (спустя 27 минут)

MiGeL123
топ 1 зимы! а эндинг 3 эпизода наверное будет в сердцах как Харухи ( ну для более молодых как к-он)

MiGeL123

post 10-Фев-19 12:51 (спустя 11 часов)

MoscowGolem
Топ разве не герой щита?)

MoscowGolem

post 10-Фев-19 13:37 (спустя 45 минут)

MiGeL123
он сразу за Кагуей) ( и слизью)

DENISKA_omsk

post 10-Фев-19 23:41 (спустя 10 часов)

довольно карикатурно, да шуточки местами удачные

MoscowGolem

post 16-Фев-19 20:26 (спустя 5 дней)

эпизод 6 +

MoscowGolem

post 23-Фев-19 21:16 (спустя 7 дней)

эпизод 7 +

MoscowGolem

post 02-Мар-19 20:07 (спустя 6 дней)

эпизод 8 +

MoscowGolem

post 09-Мар-19 19:54 (спустя 6 дней)

эпизод 9 +

MoscowGolem

post 16-Мар-19 21:52 (спустя 7 дней)

эпизод 10 +

MoscowGolem

post 23-Мар-19 19:27 (спустя 6 дней)

эпизод 11 +

MoscowGolem

post 30-Мар-19 23:43 (спустя 7 дней)

эпизод 12 +
сезон окончен, ждем продолжения!

Текущее время: 20-Авг 05:58

Часовой пояс: GMT + 3



Вы не можете начинать темы
Вы не можете отвечать на сообщения
Вы не можете редактировать свои сообщения
Вы не можете удалять свои сообщения
Вы не можете голосовать в опросах
Вы не можете прикреплять файлы к сообщениям
Вы не можете скачивать файлы