Loading...
Error
 

Скачать торрент Гранд тур / The Grand Tour (3 сезон: 14 серии из 14) (Фил Чурчуорд, Кит Линч Робинсон, Гэвин Уайтхед) [2019, Авто-шоу, WEBRip 1080p][Jetvis Studio]

 
Автор Сообщение

loyolman

post 20-Янв-19 13:26

pic
Гранд Тур / The Grand Tour

Год выпуска: 2019
Страна: Великобритания
Жанр: Авто-шоу
Продолжительность: 01:09:00
Сезон: 3 / Серии: 14 из 14
Перевод: Любительский (многоголосый, закадровый) Jetvis Studio
Субтитры: Отсутствуют
Режиссер: Фил Чурчуорд, Кит Линч Робинсон, Гэвин Уайтхед
В ролях: Джереми Кларксон, Ричард Хаммонд, Джеймс Мэй
Описание: "Гранд Тур" — это новое автомобильное телешоу, созданное бывшими ведущими Top Gear — Джереми Кларксоном, Ричардом Хаммондом и Джеймсом Мэйем. Зрителей ждут автомобильные обзоры, приключения по всему миру, встречи со знаменитостями и юмор, который является непременным атрибутом каждого выпуска.
Качество: WEBRip 1080p
Формат: MKV
Видео кодек: AVC
Аудио кодек: AC3
Видео: 1920x1080 at 25,000 fps, MPEG-4 AVC, ~8000 kbps avg
Аудио:
Русский: AC3, 48000 Hz, 2 ch, ~192 Kbps - Многоголосый закадровый (Jetvis Studio)
English: AC3, 48000 Hz, 2 ch, ~192 Kbps - Оригинал
MediaInfo

Код:

Общее
Уникальный идентификатор : 247547653605516231485379926267416738754 (0xBA3BF1A1BCC3A05090EEB111710AFBC2)
Полное имя : D:\Video\The.Grand.Tour.S03.Jetvis.Studio\The.Grand.Tour.S03E01.Motown.Funk.Jetvis.Studio.mkv
Формат : Matroska
Версия формата : Version 4
Размер файла : 4,06 Гбайт
Продолжительность : 1 ч. 9 м.
Общий поток : 8401 Кбит/сек
Дата кодирования : UTC 2019-01-18 22:41:14
Программа кодирования : mkvmerge v9.8.0 ('Kuglblids') 64bit
Библиотека кодирования : libebml v1.3.4 + libmatroska v1.4.5

Видео
Идентификатор : 1
Формат : AVC
Формат/Информация : Advanced Video Codec
Профиль формата : [email protected]
Настройки формата : CABAC / 3 Ref Frames
Параметр CABAC формата : Да
Параметр RefFrames формата : 3 кадра
Идентификатор кодека : V_MPEG4/ISO/AVC
Продолжительность : 1 ч. 9 м.
Битрейт : 8000 Кбит/сек
Ширина : 1920 пикселей
Высота : 1080 пикселей
Соотношение сторон : 16:9
Режим частоты кадров : Постоянный
Частота кадров : 25,000 кадров/сек
Цветовое пространство : YUV
Субдискретизация насыщенности : 4:2:0
Битовая глубина : 8 бит
Тип развёртки : Прогрессивная
Бит/(Пиксели*Кадры) : 0.154
Размер потока : 3,87 Гбайт (95%)
Библиотека кодирования : x264 core 65 r999kMod cc51047
Настройки программы : cabac=1 / ref=3 / deblock=1:0:0 / analyse=0x3:0x133 / me=umh / subme=6 / psy_rd=1.0:0.0 / mixed_ref=1 / me_range=16 / chroma_me=1 / trellis=1 / 8x8dct=1 / cqm=0 / deadzone=21,11 / chroma_qp_offset=-2 / threads=8 / thread_queue=8 / nr=0 / decimate=1 / mbaff=0 / bframes=3 / b_pyramid=1 / b_adapt=1 / b_bias=0 / direct=1 / wpredb=1 / keyint=250 / keyint_min=25 / scenecut=40(pre) / rc=abr / bitrate=8000 / ratetol=1.0 / qcomp=0.60 / qpmin=10 / qpmax=51 / qpstep=4 / ip_ratio=1.40 / pb_ratio=1.30 / aq=1:1.00
Default : Да
Forced : Нет

Аудио #1
Идентификатор : 2
Формат : AC-3
Формат/Информация : Audio Coding 3
Коммерческое название : Dolby Digital
Идентификатор кодека : A_AC3
Продолжительность : 1 ч. 9 м.
Вид битрейта : Постоянный
Битрейт : 192 Кбит/сек
Каналы : 2 канала
Channel layout : L R
Частота : 48,0 КГц
Частота кадров : 31,250 кадров/сек (1536 SPF)
Битовая глубина : 16 бит
Метод сжатия : С потерями
Размер потока : 95,0 Мбайт (2%)
ServiceKind/String : Complete Main
Default : Да
Forced : Да

Аудио #2
Идентификатор : 3
Формат : AC-3
Формат/Информация : Audio Coding 3
Коммерческое название : Dolby Digital
Идентификатор кодека : A_AC3
Продолжительность : 1 ч. 9 м.
Вид битрейта : Постоянный
Битрейт : 192 Кбит/сек
Каналы : 2 канала
Channel layout : L R
Частота : 48,0 КГц
Частота кадров : 31,250 кадров/сек (1536 SPF)
Битовая глубина : 16 бит
Метод сжатия : С потерями
Размер потока : 95,0 Мбайт (2%)
ServiceKind/String : Complete Main
Default : Нет
Forced : Нет

Рейтинг
Скриншоты
The.Grand.Tour.S03.Jetvis.Studio.torrent
 ЗОЛОТАЯ РАЗДАЧА! СКАЧАННОЕ НЕ ЗАСЧИТЫВАЕТСЯ! 
Вечный
Трекер: Зарегистрирован

magnet ссылка

 


Скачать .torrent

139 KB

Статус: проверено (by Cherepah в 16-Апр-19 01:38)
Зарегистрирован: 16-Апр-19 01:21
Скачан: 241 раз
Размер: 55.16 GB | 
Поблагодарили:
Скачать Гранд тур / The Grand Tour (3 сезон: 14 серии из 14) (Фил Чурчуорд, Кит Линч Робинсон, Гэвин Уайтхед) [2019, Авто-шоу, WEBRip 1080p][Jetvis Studio] торрент
 


Похожие раздачи

loyolman

post 20-Янв-19 13:30 (спустя 4 минуты)

20.01.2019 - Добавлена 1 серия.

Snowden

post 20-Янв-19 18:04 (спустя 4 часа)

loyolman
Видео: 1920x1080 at 25,000 fps, MPEG-4 AVC, ~8000 kbps avg
Максимальный размер постера 550х600 пикселей!

Blood Crow

post 20-Янв-19 20:57 (спустя 2 часа 53 минуты)

Выложите пожалуйста еще в 720р ;)

loyolman

post 27-Янв-19 15:25 (спустя 6 дней)

27.01.2019 - Торрент обновлён! Добавлены 2,3 серии.

loyolman

post 02-Фев-19 15:35 (спустя 6 дней)

02.02.2019 - Торрент обновлён! Добавлена 4 серия.

DemonMc

post 04-Фев-19 00:08 (спустя 1 день 8 часов)

Надеюсь подпишут контракт еще на три сезона praying

loyolman

post 09-Фев-19 11:28 (спустя 5 дней)

09.02.2019 - Торрент обновлён! Добавлена 5 серия.

DemonMc

post 18-Фев-19 22:42 (спустя 9 дней)

Что с 6й серией?

loyolman

post 20-Фев-19 18:58 (спустя 1 день 20 часов)

20.02.2019 - Добавлена 6 серия.

DemonMc

post 21-Фев-19 02:03 (спустя 7 часов)

Важно
Почему на рутрекере серии весят больше? Гранд тур
 
 !  Ссылки на другие трекеры запрещены!

loyolman

post 24-Фев-19 13:55 (спустя 3 дня)

24.02.2019 - Добавлена 7 серия.

loyolman

post 05-Мар-19 20:42 (спустя 9 дней)

05.03.2019 - Добавлена 8 серия.

loyolman

post 12-Мар-19 20:41 (спустя 6 дней)

12.03.2019 - Добавлена 9 серия.

DemonMc

post 12-Мар-19 21:03 (спустя 21 минута)

И серий 13

loyolman

post 16-Апр-19 01:39 (спустя 1 месяц 3 дня)

16.04.2019 - Торрент обновлён! Добавлены 10-14 серии. Релиз завершен!

Текущее время: 17-Июн 16:40

Часовой пояс: GMT + 3



Вы не можете начинать темы
Вы не можете отвечать на сообщения
Вы не можете редактировать свои сообщения
Вы не можете удалять свои сообщения
Вы не можете голосовать в опросах
Вы не можете прикреплять файлы к сообщениям
Вы не можете скачивать файлы