Loading...
Error
 

Скачать торрент Океан мечты: Наслаждение красотой моря / Ocean Dreams: Enjoy the Powerful Beauty of the Sea (Сэм Уивер)[2013, Документальный, видовой, музыка, релакс,BDRip 1080p] горизонтальная анаморфная стереопара

 
Автор Сообщение

brother225

post 11-Фев-19 07:05

pic
Океан мечты: Наслаждение красотой моря / Ocean Dreams: Enjoy the Powerful Beauty of the Sea
Год выпуска: 2013
Страна: США, 3D Media
Жанр: Документальный, видовой, музыка, релакс
Продолжительность: 01:33:51
Перевод: Отсутствует
Субтитры: отсутствуют
Режиссёр: Сэм Уивер
Описание: Вы желаете мира и отдыха и по-настоящему расслабиться? Позвольте вашей душе воспарить, а сами откиньтесь на спинку кресла. Великолепные пляжи, высокие пальмы и лазурное море только начало. Вы сможете насладиться обзором достопримечательностей ближайшие 90 минут в реальном 3D, с такого близкого расстояния, как если бы вы действительно были там. Это идеальное решение для вашего общего блага, в то время когда снаружи снова идет дождь. Этот фильм, который сделан с применением самого современного 3D-оборудования.
Качество: BDRip 1080p
Формат: MKV
Формат 3D: SbS / горизонтальная анаморфная стереопара
Порядок ракурсов: левый ракурс первый
Видео кодек:AVC
Аудио кодек: AC3
Видео: 1920х1080 ,23.976 fps ,9000 Kb/s, 0.181 bpp,
Аудио: AC3, 6 ch,48 KHz , 640 Kb/s
MediaInfo
Complete name : H:\мои раздачи\Ocean Dreams 3D-SBS 1080p.mkv
Format : Matroska
Format version : Version 4
File size : 6.32 GiB
Duration : 1 h 33 min
Overall bit rate : 9 641 kb/s
Encoded date : UTC 2019-02-11 03:56:31
Writing application : mkvmerge v31.0.0 ('Dolores In A Shoestand') 64-bit
Writing library : libebml v1.3.6 + libmatroska v1.4.9

Video
ID : 1
Format : AVC
Format/Info : Advanced Video Codec
Format profile : [email protected]
MultiView_Count : 2
MultiView_Layout : Side by Side (left eye first)
Format settings : CABAC / 4 Ref Frames
Format settings, CABAC : Yes
Format settings, ReFrames : 4 frames
Codec ID : V_MPEG4/ISO/AVC
Duration : 1 h 33 min
Bit rate : 9 000 kb/s
Width : 1 920 pixels
Height : 1 080 pixels
Display aspect ratio : 16:9
Frame rate mode : Constant
Frame rate : 23.976 (24000/1001) FPS
Color space : YUV
Chroma subsampling : 4:2:0
Bit depth : 8 bits
Scan type : Progressive
Bits/(Pixel*Frame) : 0.181
Stream size : 5.90 GiB (93%)
Title : 3D Half-SBS (x264 [email protected] 2-pass 9000 Kbps)
Writing library : x264 core 155 r2901 7d0ff22
Encoding settings : cabac=1 / ref=4 / deblock=1:-2:-1 / analyse=0x3:0x133 / me=umh / subme=10 / psy=1 / psy_rd=1.00:0.15 / mixed_ref=1 / me_range=24 / chroma_me=1 / trellis=2 / 8x8dct=1 / cqm=0 / deadzone=21,11 / fast_pskip=1 / chroma_qp_offset=-3 / threads=34 / lookahead_threads=3 / sliced_threads=0 / nr=0 / decimate=1 / interlaced=0 / bluray_compat=0 / constrained_intra=0 / bframes=6 / b_pyramid=2 / b_adapt=2 / b_bias=0 / direct=3 / weightb=1 / open_gop=0 / weightp=2 / keyint=250 / keyint_min=23 / scenecut=40 / intra_refresh=0 / rc_lookahead=60 / rc=2pass / mbtree=1 / bitrate=9000 / ratetol=1.0 / qcomp=0.60 / qpmin=0 / qpmax=69 / qpstep=4 / cplxblur=20.0 / qblur=0.5 / vbv_maxrate=62500 / vbv_bufsize=78125 / nal_hrd=none / filler=0 / frame-packing=3 / ip_ratio=1.40 / aq=1:1.00
Default : Yes
Forced : No
Color range : Limited
Matrix coefficients : BT.709

Audio
ID : 2
Format : AC-3
Format/Info : Audio Coding 3
Commercial name : Dolby Digital
Codec ID : A_AC3
Duration : 1 h 33 min
Bit rate mode : Constant
Bit rate : 640 kb/s
Channel(s) : 6 channels
Channel layout : L R C LFE Ls Rs
Sampling rate : 48.0 kHz
Frame rate : 31.250 FPS (1536 SPF)
Bit depth : 16 bits
Compression mode : Lossy
Stream size : 430 MiB (7%)
Service kind : Complete Main
Default : Yes
Forced : No

Menu
00:00:00.000 : :1 - 0:00:00
00:05:00.000 : :2 - 0:05:00
00:10:00.000 : :3 - 0:10:00
00:15:00.000 : :4 - 0:15:00
00:20:00.000 : :5 - 0:20:00
00:25:00.000 : :6 - 0:25:00
00:30:00.000 : :7 - 0:30:00
00:35:00.000 : :8 - 0:35:00
00:40:00.000 : :9 - 0:40:00
00:45:00.000 : :10 - 0:45:00
00:50:00.000 : :11 - 0:50:00
00:55:00.000 : :12 - 0:55:00
01:00:00.000 : :13 - 1:00:00
01:05:00.000 : :14 - 1:05:00
01:10:00.000 : :15 - 1:10:00
01:15:00.000 : :16 - 1:15:00
01:20:00.000 : :17 - 1:20:00
01:25:00.000 : :18 - 1:25:00
01:30:00.000 : :19 - 1:30:00
x264log
x264 [info]: frame I:546 Avg QP:16.03 size:448157
x264 [info]: frame P:47681 Avg QP:18.83 size: 89043
x264 [info]: frame B:86779 Avg QP:23.45 size: 21244
x264 [info]: consecutive B-frames: 11.3% 10.0% 20.7% 29.7% 10.2% 17.6% 0.4%
x264 [info]: SSIM Mean Y:0.9861690 (18.591db)
encoded 135006 frames, 19.25 fps, 8998.75 kb/s
Скриншоты
Ocean Dreams 3D-SBS 1080p.mkv.torrent
 СЕРЕБРЯНАЯ РАЗДАЧА! СКАЧАННОЕ ЗАСЧИТЫВАЕТСЯ ТОЛЬКО НАПОЛОВИНУ! 
Вечный
Трекер: Зарегистрирован

magnet ссылка

 


Скачать .torrent

32 KB

Статус: проверено (by Cherepah в 11-Фев-19 10:24)
Зарегистрирован: 11-Фев-19 07:05
Скачан: 31 раз
Размер: 6.32 GB | 
Поблагодарили:
Скачать Океан мечты: Наслаждение красотой моря / Ocean Dreams: Enjoy the Powerful Beauty of the Sea (Сэм Уивер)[2013, Документальный, видовой, музыка, релакс,BDRip 1080p] горизонтальная анаморфная стереопара торрент
 


Похожие раздачи

Текущее время: 26-Апр 16:54

Часовой пояс: GMT + 3



Вы не можете начинать темы
Вы не можете отвечать на сообщения
Вы не можете редактировать свои сообщения
Вы не можете удалять свои сообщения
Вы не можете голосовать в опросах
Вы не можете прикреплять файлы к сообщениям
Вы не можете скачивать файлы