Loading...
Error
 

Скачать торрент (Heavy, Power Metal) Black Majesty - Children Of The Abyss (Jараnеsе Еditiоn) - 2018 [FLAC, image +.cue, lossless]

 
Автор Сообщение

trygg

post 11-Фев-19 13:24


Black Majesty - Children Of The Abyss (Jараnеsе Еditiоn)]


pic
Год издания: 2018
Страна: Australia pic
Жанр: Heavy, Power Metal
Продолжительность: 00:51:30
Лейбл издания: Radtone Music
Страна-выпуска диска: Japan pic
Номер по каталогу: RADC-116
Формат: FLAC
Битрейт аудио: Lossless
Тип рипа: image +.cue
Наличие сканов в содержимом раздачи: да

pic
Трэклист
pic
01. Dragons Unite (4:25)
02. Something's Going On (5:26)
03. Children Of The Abyss (4:36)
04. Hideaway (4:34)
05. War's Greed (4:48)
06. Always Running (4:56)
07. Lonely (4:24)
08. Sanctified (4:55)
09. Nothing Forever (4:28)
10. Reach Into The Darkness (4:26)
11. Free The Mind (Bonus Track) (4:32)

pic
Лог создания рипа

Код:

Exact Audio Copy V1.3 from 2. September 2016

EAC extraction logfile from 31. January 2019, 23:53

Black Majesty / Children Of The Abyss (Japan 2019)

Used drive  : ATAPI   iHAS124   F   Adapter: 2  ID: 0

Read mode               : Secure
Utilize accurate stream : Yes
Defeat audio cache      : Yes
Make use of C2 pointers : No

Read offset correction                      : 6
Overread into Lead-In and Lead-Out          : No
Fill up missing offset samples with silence : Yes
Delete leading and trailing silent blocks   : No
Null samples used in CRC calculations       : Yes
Used interface                              : Installed external ASPI interface

Used output format              : User Defined Encoder
Selected bitrate                : 1024 kBit/s
Quality                         : High
Add ID3 tag                     : No
Command line compressor         : C:\Program Files\FLAC\flac.exe
Additional command line options : -V -8 -T "Date=%year%" -T "Genre=%genre%" -T"COMMENT=Ripped by  Ilijan" -8 -V %source%

TOC of the extracted CD

     Track |   Start  |  Length  | Start sector | End sector
    ---------------------------------------------------------
        1  |  0:00.00 |  4:25.02 |         0    |    19876
        2  |  4:25.02 |  5:25.72 |     19877    |    44323
        3  |  9:50.74 |  4:35.66 |     44324    |    65014
        4  | 14:26.65 |  4:34.25 |     65015    |    85589
        5  | 19:01.15 |  4:47.74 |     85590    |   107188
        6  | 23:49.14 |  4:55.46 |    107189    |   129359
        7  | 28:44.60 |  4:24.23 |    129360    |   149182
        8  | 33:09.08 |  4:54.56 |    149183    |   171288
        9  | 38:03.64 |  4:28.01 |    171289    |   191389
       10  | 42:31.65 |  4:25.51 |    191390    |   211315
       11  | 46:57.41 |  4:32.12 |    211316    |   231727

Range status and errors

Selected range

     Filename D:\Vknish\ Black Majesty - Children Of The Abyss (Japan 2019).wav

     Peak level 99.7 %
     Extraction speed 8.4 X
     Range quality 100.0 %
     Test CRC 4915858F
     Copy CRC 4915858F
     Copy OK

No errors occurred

AccurateRip summary

Track  1  not present in database
Track  2  not present in database
Track  3  not present in database
Track  4  not present in database
Track  5  not present in database
Track  6  not present in database
Track  7  not present in database
Track  8  not present in database
Track  9  not present in database
Track 10  not present in database
Track 11  not present in database

None of the tracks are present in the AccurateRip database

End of status report
Индексная карта (non-compilant .cue)

Код:

REM GENRE "Power Metal"
REM DATE 2018
REM DISCID A10C110B
REM COMMENT "ExactAudioCopy v1.3"
PERFORMER "Black Majesty"
TITLE "Children Of The Abyss (Japan 2019)"
FILE "Black Majesty - Children Of The Abyss (Japan 2019).flac" WAVE
  TRACK 01 AUDIO
    TITLE "Dragons Unite"
    PERFORMER "Black Majesty"
    INDEX 01 00:00:00
  TRACK 02 AUDIO
    TITLE "Something's Going On"
    PERFORMER "Black Majesty"
    INDEX 01 04:25:02
  TRACK 03 AUDIO
    TITLE "Children Of The Abyss"
    PERFORMER "Black Majesty"
    INDEX 01 09:50:74
  TRACK 04 AUDIO
    TITLE "Hideaway"
    PERFORMER "Black Majesty"
    INDEX 01 14:26:65
  TRACK 05 AUDIO
    TITLE "War's Greed"
    PERFORMER "Black Majesty"
    INDEX 01 19:01:15
  TRACK 06 AUDIO
    TITLE "Always Running"
    PERFORMER "Black Majesty"
    INDEX 01 23:49:14
  TRACK 07 AUDIO
    TITLE "Lonely"
    PERFORMER "Black Majesty"
    INDEX 01 28:44:60
  TRACK 08 AUDIO
    TITLE "Sanctified"
    PERFORMER "Black Majesty"
    INDEX 01 33:09:08
  TRACK 09 AUDIO
    TITLE "Nothing Forever"
    PERFORMER "Black Majesty"
    INDEX 01 38:03:64
  TRACK 10 AUDIO
    TITLE "Reach Into The Darkness"
    PERFORMER "Black Majesty"
    INDEX 01 42:31:65
  TRACK 11 AUDIO
    TITLE "Free The Mind (Bonus Track)"
    PERFORMER "Black Majesty"
    INDEX 01 46:57:41

pic
для ознакомления:


pic
pic
Black Majesty - Children Of The Abyss (Jараnеsе Еditiоn) (2018).torrent
Трекер: Зарегистрирован

magnet ссылка

 


Скачать .torrent

21 KB

Статус: проверено (by Cherepah в 11-Фев-19 14:04)
Зарегистрирован: 11-Фев-19 13:24
Скачан: 10 раз
Размер: 433 MB | 
Поблагодарили:
Скачать (Heavy, Power Metal) Black Majesty - Children Of The Abyss (Jараnеsе Еditiоn) - 2018 [FLAC, image +.cue, lossless] торрент
 


Похожие раздачи

Текущее время: 26-Апр 17:52

Часовой пояс: GMT + 3



Вы не можете начинать темы
Вы не можете отвечать на сообщения
Вы не можете редактировать свои сообщения
Вы не можете удалять свои сообщения
Вы не можете голосовать в опросах
Вы не можете прикреплять файлы к сообщениям
Вы не можете скачивать файлы