Loading...
Error
 

Скачать торрент КВН-2019. Высшая лига. 1/8 финала. Игра вторая (Эфир от 03.03.2019) [2019, Юмор, HDTV 1080i]

 
Автор Сообщение

Suentebueck

post 03-Мар-19 21:42

pic
КВН-2019. Высшая лига. 1/8 финала. Игра вторая


Год выпуска: 03.03.2019
Страна: Россия
Жанр: Юмор
Продолжительность: 01:44:00
Субтитры: Отсутствуют
Перевод: Не требуется

Ведущие: Александр Масляков

Описание:
Программа "КВН" является самой долгоживущей передачей отечественного телеэкрана. Впервые выйдя в эфир 8 ноября 1961 года, она стала легендой еще черно-белого телевидения. В 1986 году "КВН" вновь появился на экране после 14-летнего перерыва и практически сразу вернул себе былую популярность.
Сегодня телевизионная программа "КВН" - это вершина огромного айсберга, который представляет из себя Международный Союз КВН, включающий в себя более двух десятков официальных подготовительных Лиг и сотни региональных чемпионатов. Именно в этой передаче участвуют лучшие команды Клуба Веселых и Находчивых.
Более 40 лет ведет программу Александр Васильевич Масляков - Президент международного союза КВН, человек, мнением которого дорожит каждый КВНщик

Качество: HDTV 1080i
Формат: TS
Видео кодек: AVC
Аудио кодек: AC3, MP2
Видео: 1920x1080, 9 931 kb/s, 25 fps,0.192 bpp
Аудио #1: AC3 / 6 ch /48,0 kHz / 384 kbps /
Аудио #2: MP2 / 2 ch /48,0 kHz / 192 kbps /
МедиаИнфо
General
ID : 1 (0x1)
Complete name : KVN-2019. Vysshaja liga.1.8 finala. Igra vtoraja.HDTV(1080i).GeneralFilm.ts
Format : MPEG-TS
File size : 8.06 GiB
Duration : 1 h 44 min
Overall bit rate mode : Variable
Overall bit rate : 11.1 Mb/s

Video
ID : 1904 (0x770)
Menu ID : 80 (0x50)
Format : AVC
Format/Info : Advanced Video Codec
Format profile : [email protected]
Format settings : CABAC / 3 Ref Frames
Format settings, CABAC : Yes
Format settings, ReFrames : 3 frames
Codec ID : 27
Duration : 1 h 44 min
Bit rate : 9 931 kb/s
Width : 1 920 pixels
Height : 1 080 pixels
Display aspect ratio : 16:9
Frame rate : 25.000 FPS
Standard : Component
Color space : YUV
Chroma subsampling : 4:2:0
Bit depth : 8 bits
Scan type : Interlaced
Scan type, store method : Separated fields
Scan order : Top Field First
Bits/(Pixel*Frame) : 0.192
Stream size : 7.24 GiB (90%)
Color range : Limited
Color primaries : BT.709
Transfer characteristics : BT.709
Matrix coefficients : BT.709

Audio #1
ID : 2904 (0xB58)
Menu ID : 80 (0x50)
Format : AC-3
Format/Info : Audio Coding 3
Commercial name : Dolby Digital
Codec ID : 6
Duration : 1 h 44 min
Bit rate mode : Constant
Bit rate : 384 kb/s
Channel(s) : 6 channels
Channel layout : L R C LFE Ls Rs
Sampling rate : 48.0 kHz
Frame rate : 31.250 FPS (1536 SPF)
Bit depth : 16 bits
Compression mode : Lossy
Delay relative to video : -40 ms
Stream size : 287 MiB (3%)
Language : Russian
Service kind : Complete Main

Audio #2
ID : 2905 (0xB59)
Menu ID : 80 (0x50)
Format : MPEG Audio
Format version : Version 1
Format profile : Layer 2
Codec ID : 3
Duration : 1 h 44 min
Bit rate mode : Constant
Bit rate : 192 kb/s
Channel(s) : 2 channels
Sampling rate : 48.0 kHz
Frame rate : 41.667 FPS (1152 SPF)
Compression mode : Lossy
Delay relative to video : -40 ms
Stream size : 143 MiB (2%)
Language : Russian
Скриншоты
KVN-2019. Vysshaja liga.1.8 finala. Igra vtoraja.HDTV(1080i).GeneralFilm.ts.torrent
Трекер: Зарегистрирован

magnet ссылка

 


Скачать .torrent

41 KB

Статус: проверено (by Cherepah в 03-Мар-19 22:08)
Зарегистрирован: 03-Мар-19 21:42
Скачан: 56 раз
Размер: 8.06 GB | 
Поблагодарили:
Скачать КВН-2019. Высшая лига. 1/8 финала. Игра вторая (Эфир от 03.03.2019) [2019, Юмор, HDTV 1080i] торрент
 


Похожие раздачи

Текущее время: 21-Мар 14:51

Часовой пояс: GMT + 3



Вы не можете начинать темы
Вы не можете отвечать на сообщения
Вы не можете редактировать свои сообщения
Вы не можете удалять свои сообщения
Вы не можете голосовать в опросах
Вы не можете прикреплять файлы к сообщениям
Вы не можете скачивать файлы