Loading...
Error
 

Скачать торрент (Synthwave / Dreamwave / Electronic) Miami Nights 1984 - Turbulence (2012) [FLAC, (tracks), lossless]

 
Автор Сообщение

Слава2312

post 15-Мар-19 11:47

MIAMI NIGHTS '84 - Turbulence


pic

Жанр: Synthwave / Dreamwave / Electronic
Год издания данного носителя: 2012
Страна-производитель носителя: Canada
Лейбл: Rosso Corsa Records
Каталоговый номер: RCR008
Аудио кодек: FLAC
Тип рипа: tracks
Битрейт аудио: lossless [24/44,1]
Продолжительность: 00:39:22
Источник (релизер): what.cd [Valkea]
Для ознакомления: pic
Треклист:
[1:17] 01. Miami Nights 1984 - MN84 Theme
[4:21] 02. Miami Nights 1984 - Clutch
[4:18] 03. Miami Nights 1984 - Ocean Drive
[3:56] 04. Miami Nights 1984 - The Getaway
[3:17] 05. Miami Nights 1984 - Streets On Fire
[1:36] 06. Miami Nights 1984 - Astral Projection
[5:10] 07. Miami Nights 1984 - New Tomorrow
[2:41] 08. Miami Nights 1984 - Tiger42
[3:31] 09. Miami Nights 1984 - Phone Tag
[4:26] 10. Miami Nights 1984 - Saved By The Bell
[2:58] 11. Miami Nights 1984 - High Beams
[1:50] 12. Miami Nights 1984 - The End
AUDIOCHECKER

Код:



AUDIOCHECKER v2.0 beta (build 457) - by Dester
~~~~~~~~~~~~~~~~~~~~~~~~~~~~~~~~~~
-=== НЕ РЕДАКТИРУЙТЕ ЭТОТ ФАЙЛ! ===-

Путь: ...\Miami Nights 1984 - Turbulence [2012] Flac

01 -=- 01. MN84 Theme.flac -=- ERROR
02 -=- 02. Clutch.flac -=- ERROR
03 -=- 03. Ocean Drive.flac -=- ERROR
04 -=- 04. The Getaway.flac -=- ERROR
05 -=- 05. Streets On Fire.flac -=- ERROR
06 -=- 06. Astral Projection.flac -=- ERROR
07 -=- 07. New Tomorrow.flac -=- ERROR
08 -=- 08. Tiger42.flac -=- ERROR
09 -=- 09. Phone Tag.flac -=- ERROR
10 -=- 10. Saved By The Bell.flac -=- ERROR
11 -=- 11. High Beams.flac -=- ERROR
12 -=- 12. The End.flac -=- ERROR

MediaInfo

Код:



Общее
Полное имя                               : D:\Music\Miami Nights 1984 - Turbulence [2012] Flac\00. Miami Nights 1984 - Turbulence [2012] [FLAC].jpg
Формат                                   : JPEG
Размер файла                             : 328 Кбайт

Изображения
Формат                                   : JPEG
Ширина                                   : 1024 пикселя
Высота                                   : 1024 пикселя
Цветовое пространство                    : YUV
Субдискретизация насыщенности            : 4:4:4
Битовая глубина                          : 8 бит
Метод сжатия                             : С потерями
Размер потока                            : 328 Кбайт (100%)

Общее
Полное имя                               : D:\Music\Miami Nights 1984 - Turbulence [2012] Flac\01. MN84 Theme.flac
Формат                                   : FLAC
Формат/Информация                        : Free Lossless Audio Codec
Размер файла                             : 13,8 Мбайт
Продолжительность                        : 1 м. 16 с.
Режим общего битрейта                    : Переменный
Общий поток                              : 1512 Кбит/сек
Альбом                                   : Turbulence
Часть                                    : 1
Часть/Всего                              : 1
Трек                                     : MN84 Theme
Трек/Положение                           : 01
Трек/Всего                               : 12
Исполнитель                              : Miami Nights 1984
Жанр                                     : Dreamwave
Дата записи                              : 2012
Обложка                                  : Yes
Тип обложки                              : Cover (front)
MIME-тип обложки                         : image/jpeg

Аудио
Формат                                   : FLAC
Формат/Информация                        : Free Lossless Audio Codec
Продолжительность                        : 1 м. 16 с.
Вид битрейта                             : Переменный
Битрейт                                  : 1476 Кбит/сек
Каналы                                   : 2 канала
Channel layout                           : L R
Частота                                  : 44,1 КГц
Битовая глубина                          : 24 бит
Метод сжатия                             : Без потерь
Размер потока                            : 13,5 Мбайт (98%)
Библиотека кодирования                   : libFLAC 1.2.1 (UTC 2007-09-17)

Общее
Полное имя                               : D:\Music\Miami Nights 1984 - Turbulence [2012] Flac\02. Clutch.flac
Формат                                   : FLAC
Формат/Информация                        : Free Lossless Audio Codec
Размер файла                             : 53,4 Мбайт
Продолжительность                        : 4 м. 21 с.
Режим общего битрейта                    : Переменный
Общий поток                              : 1717 Кбит/сек
Альбом                                   : Turbulence
Часть                                    : 1
Часть/Всего                              : 1
Трек                                     : Clutch
Трек/Положение                           : 02
Трек/Всего                               : 12
Исполнитель                              : Miami Nights 1984
Жанр                                     : Dreamwave
Дата записи                              : 2012
Обложка                                  : Yes
Тип обложки                              : Cover (front)
MIME-тип обложки                         : image/jpeg

Аудио
Формат                                   : FLAC
Формат/Информация                        : Free Lossless Audio Codec
Продолжительность                        : 4 м. 21 с.
Вид битрейта                             : Переменный
Битрейт                                  : 1706 Кбит/сек
Каналы                                   : 2 канала
Channel layout                           : L R
Частота                                  : 44,1 КГц
Битовая глубина                          : 24 бит
Метод сжатия                             : Без потерь
Размер потока                            : 53,1 Мбайт (99%)
Библиотека кодирования                   : libFLAC 1.2.1 (UTC 2007-09-17)

Общее
Полное имя                               : D:\Music\Miami Nights 1984 - Turbulence [2012] Flac\03. Ocean Drive.flac
Формат                                   : FLAC
Формат/Информация                        : Free Lossless Audio Codec
Размер файла                             : 50,7 Мбайт
Продолжительность                        : 4 м. 18 с.
Режим общего битрейта                    : Переменный
Общий поток                              : 1644 Кбит/сек
Альбом                                   : Turbulence
Часть                                    : 1
Часть/Всего                              : 1
Трек                                     : Ocean Drive
Трек/Положение                           : 03
Трек/Всего                               : 12
Исполнитель                              : Miami Nights 1984
Жанр                                     : Dreamwave
Дата записи                              : 2012
Обложка                                  : Yes
Тип обложки                              : Cover (front)
MIME-тип обложки                         : image/jpeg

Аудио
Формат                                   : FLAC
Формат/Информация                        : Free Lossless Audio Codec
Продолжительность                        : 4 м. 18 с.
Вид битрейта                             : Переменный
Битрейт                                  : 1634 Кбит/сек
Каналы                                   : 2 канала
Channel layout                           : L R
Частота                                  : 44,1 КГц
Битовая глубина                          : 24 бит
Метод сжатия                             : Без потерь
Размер потока                            : 50,3 Мбайт (99%)
Библиотека кодирования                   : libFLAC 1.2.1 (UTC 2007-09-17)

Общее
Полное имя                               : D:\Music\Miami Nights 1984 - Turbulence [2012] Flac\04. The Getaway.flac
Формат                                   : FLAC
Формат/Информация                        : Free Lossless Audio Codec
Размер файла                             : 49,1 Мбайт
Продолжительность                        : 3 м. 56 с.
Режим общего битрейта                    : Переменный
Общий поток                              : 1747 Кбит/сек
Альбом                                   : Turbulence
Часть                                    : 1
Часть/Всего                              : 1
Трек                                     : The Getaway
Трек/Положение                           : 04
Трек/Всего                               : 12
Исполнитель                              : Miami Nights 1984
Жанр                                     : Dreamwave
Дата записи                              : 2012
Обложка                                  : Yes
Тип обложки                              : Cover (front)
MIME-тип обложки                         : image/jpeg

Аудио
Формат                                   : FLAC
Формат/Информация                        : Free Lossless Audio Codec
Продолжительность                        : 3 м. 56 с.
Вид битрейта                             : Переменный
Битрейт                                  : 1735 Кбит/сек
Каналы                                   : 2 канала
Channel layout                           : L R
Частота                                  : 44,1 КГц
Битовая глубина                          : 24 бит
Метод сжатия                             : Без потерь
Размер потока                            : 48,8 Мбайт (99%)
Библиотека кодирования                   : libFLAC 1.2.1 (UTC 2007-09-17)

Общее
Полное имя                               : D:\Music\Miami Nights 1984 - Turbulence [2012] Flac\05. Streets On Fire.flac
Формат                                   : FLAC
Формат/Информация                        : Free Lossless Audio Codec
Размер файла                             : 39,5 Мбайт
Продолжительность                        : 3 м. 16 с.
Режим общего битрейта                    : Переменный
Общий поток                              : 1684 Кбит/сек
Альбом                                   : Turbulence
Часть                                    : 1
Часть/Всего                              : 1
Трек                                     : Streets On Fire
Трек/Положение                           : 05
Трек/Всего                               : 12
Исполнитель                              : Miami Nights 1984
Жанр                                     : Dreamwave
Дата записи                              : 2012
Обложка                                  : Yes
Тип обложки                              : Cover (front)
MIME-тип обложки                         : image/jpeg

Аудио
Формат                                   : FLAC
Формат/Информация                        : Free Lossless Audio Codec
Продолжительность                        : 3 м. 16 с.
Вид битрейта                             : Переменный
Битрейт                                  : 1670 Кбит/сек
Каналы                                   : 2 канала
Channel layout                           : L R
Частота                                  : 44,1 КГц
Битовая глубина                          : 24 бит
Метод сжатия                             : Без потерь
Размер потока                            : 39,2 Мбайт (99%)
Библиотека кодирования                   : libFLAC 1.2.1 (UTC 2007-09-17)

Общее
Полное имя                               : D:\Music\Miami Nights 1984 - Turbulence [2012] Flac\06. Astral Projection.flac
Формат                                   : FLAC
Формат/Информация                        : Free Lossless Audio Codec
Размер файла                             : 18,6 Мбайт
Продолжительность                        : 1 м. 36 с.
Режим общего битрейта                    : Переменный
Общий поток                              : 1628 Кбит/сек
Альбом                                   : Turbulence
Часть                                    : 1
Часть/Всего                              : 1
Трек                                     : Astral Projection
Трек/Положение                           : 06
Трек/Всего                               : 12
Исполнитель                              : Miami Nights 1984
Жанр                                     : Dreamwave
Дата записи                              : 2012
Обложка                                  : Yes
Тип обложки                              : Cover (front)
MIME-тип обложки                         : image/jpeg

Аудио
Формат                                   : FLAC
Формат/Информация                        : Free Lossless Audio Codec
Продолжительность                        : 1 м. 36 с.
Вид битрейта                             : Переменный
Битрейт                                  : 1599 Кбит/сек
Каналы                                   : 2 канала
Channel layout                           : L R
Частота                                  : 44,1 КГц
Битовая глубина                          : 24 бит
Метод сжатия                             : Без потерь
Размер потока                            : 18,3 Мбайт (98%)
Библиотека кодирования                   : libFLAC 1.2.1 (UTC 2007-09-17)

Общее
Полное имя                               : D:\Music\Miami Nights 1984 - Turbulence [2012] Flac\07. New Tomorrow.flac
Формат                                   : FLAC
Формат/Информация                        : Free Lossless Audio Codec
Размер файла                             : 58,3 Мбайт
Продолжительность                        : 5 м. 10 с.
Режим общего битрейта                    : Переменный
Общий поток                              : 1577 Кбит/сек
Альбом                                   : Turbulence
Часть                                    : 1
Часть/Всего                              : 1
Трек                                     : New Tomorrow
Трек/Положение                           : 07
Трек/Всего                               : 12
Исполнитель                              : Miami Nights 1984
Жанр                                     : Dreamwave
Дата записи                              : 2012
Обложка                                  : Yes
Тип обложки                              : Cover (front)
MIME-тип обложки                         : image/jpeg

Аудио
Формат                                   : FLAC
Формат/Информация                        : Free Lossless Audio Codec
Продолжительность                        : 5 м. 10 с.
Вид битрейта                             : Переменный
Битрейт                                  : 1568 Кбит/сек
Каналы                                   : 2 канала
Channel layout                           : L R
Частота                                  : 44,1 КГц
Битовая глубина                          : 24 бит
Метод сжатия                             : Без потерь
Размер потока                            : 58,0 Мбайт (99%)
Библиотека кодирования                   : libFLAC 1.2.1 (UTC 2007-09-17)

Общее
Полное имя                               : D:\Music\Miami Nights 1984 - Turbulence [2012] Flac\08. Tiger42.flac
Формат                                   : FLAC
Формат/Информация                        : Free Lossless Audio Codec
Размер файла                             : 32,4 Мбайт
Продолжительность                        : 2 м. 41 с.
Режим общего битрейта                    : Переменный
Общий поток                              : 1685 Кбит/сек
Альбом                                   : Turbulence
Часть                                    : 1
Часть/Всего                              : 1
Трек                                     : Tiger42
Трек/Положение                           : 08
Трек/Всего                               : 12
Исполнитель                              : Miami Nights 1984
Жанр                                     : Dreamwave
Дата записи                              : 2012
Обложка                                  : Yes
Тип обложки                              : Cover (front)
MIME-тип обложки                         : image/jpeg

Аудио
Формат                                   : FLAC
Формат/Информация                        : Free Lossless Audio Codec
Продолжительность                        : 2 м. 41 с.
Вид битрейта                             : Переменный
Битрейт                                  : 1668 Кбит/сек
Каналы                                   : 2 канала
Channel layout                           : L R
Частота                                  : 44,1 КГц
Битовая глубина                          : 24 бит
Метод сжатия                             : Без потерь
Размер потока                            : 32,1 Мбайт (99%)
Библиотека кодирования                   : libFLAC 1.2.1 (UTC 2007-09-17)

Общее
Полное имя                               : D:\Music\Miami Nights 1984 - Turbulence [2012] Flac\09. Phone Tag.flac
Формат                                   : FLAC
Формат/Информация                        : Free Lossless Audio Codec
Размер файла                             : 41,9 Мбайт
Продолжительность                        : 3 м. 30 с.
Режим общего битрейта                    : Переменный
Общий поток                              : 1668 Кбит/сек
Альбом                                   : Turbulence
Часть                                    : 1
Часть/Всего                              : 1
Трек                                     : Phone Tag
Трек/Положение                           : 09
Трек/Всего                               : 12
Исполнитель                              : Miami Nights 1984
Жанр                                     : Dreamwave
Дата записи                              : 2012
Обложка                                  : Yes
Тип обложки                              : Cover (front)
MIME-тип обложки                         : image/jpeg

Аудио
Формат                                   : FLAC
Формат/Информация                        : Free Lossless Audio Codec
Продолжительность                        : 3 м. 30 с.
Вид битрейта                             : Переменный
Битрейт                                  : 1655 Кбит/сек
Каналы                                   : 2 канала
Channel layout                           : L R
Частота                                  : 44,1 КГц
Битовая глубина                          : 24 бит
Метод сжатия                             : Без потерь
Размер потока                            : 41,6 Мбайт (99%)
Библиотека кодирования                   : libFLAC 1.2.1 (UTC 2007-09-17)

Общее
Полное имя                               : D:\Music\Miami Nights 1984 - Turbulence [2012] Flac\10. Saved By The Bell.flac
Формат                                   : FLAC
Формат/Информация                        : Free Lossless Audio Codec
Размер файла                             : 48,6 Мбайт
Продолжительность                        : 4 м. 25 с.
Режим общего битрейта                    : Переменный
Общий поток                              : 1535 Кбит/сек
Альбом                                   : Turbulence
Часть                                    : 1
Часть/Всего                              : 1
Трек                                     : Saved By The Bell
Трек/Положение                           : 10
Трек/Всего                               : 12
Исполнитель                              : Miami Nights 1984
Жанр                                     : Dreamwave
Дата записи                              : 2012
Обложка                                  : Yes
Тип обложки                              : Cover (front)
MIME-тип обложки                         : image/jpeg

Аудио
Формат                                   : FLAC
Формат/Информация                        : Free Lossless Audio Codec
Продолжительность                        : 4 м. 25 с.
Вид битрейта                             : Переменный
Битрейт                                  : 1524 Кбит/сек
Каналы                                   : 2 канала
Channel layout                           : L R
Частота                                  : 44,1 КГц
Битовая глубина                          : 24 бит
Метод сжатия                             : Без потерь
Размер потока                            : 48,3 Мбайт (99%)
Библиотека кодирования                   : libFLAC 1.2.1 (UTC 2007-09-17)

Общее
Полное имя                               : D:\Music\Miami Nights 1984 - Turbulence [2012] Flac\11. High Beams.flac
Формат                                   : FLAC
Формат/Информация                        : Free Lossless Audio Codec
Размер файла                             : 35,8 Мбайт
Продолжительность                        : 2 м. 58 с.
Режим общего битрейта                    : Переменный
Общий поток                              : 1686 Кбит/сек
Альбом                                   : Turbulence
Часть                                    : 1
Часть/Всего                              : 1
Трек                                     : High Beams
Трек/Положение                           : 11
Трек/Всего                               : 12
Исполнитель                              : Miami Nights 1984
Жанр                                     : Dreamwave
Дата записи                              : 2012
Обложка                                  : Yes
Тип обложки                              : Cover (front)
MIME-тип обложки                         : image/jpeg

Аудио
Формат                                   : FLAC
Формат/Информация                        : Free Lossless Audio Codec
Продолжительность                        : 2 м. 58 с.
Вид битрейта                             : Переменный
Битрейт                                  : 1671 Кбит/сек
Каналы                                   : 2 канала
Channel layout                           : L R
Частота                                  : 44,1 КГц
Битовая глубина                          : 24 бит
Метод сжатия                             : Без потерь
Размер потока                            : 35,5 Мбайт (99%)
Библиотека кодирования                   : libFLAC 1.2.1 (UTC 2007-09-17)

Общее
Полное имя                               : D:\Music\Miami Nights 1984 - Turbulence [2012] Flac\12. The End.flac
Формат                                   : FLAC
Формат/Информация                        : Free Lossless Audio Codec
Размер файла                             : 20,9 Мбайт
Продолжительность                        : 1 м. 50 с.
Режим общего битрейта                    : Переменный
Общий поток                              : 1595 Кбит/сек
Альбом                                   : Turbulence
Часть                                    : 1
Часть/Всего                              : 1
Трек                                     : The End
Трек/Положение                           : 12
Трек/Всего                               : 12
Исполнитель                              : Miami Nights 1984
Жанр                                     : Dreamwave
Дата записи                              : 2012
Обложка                                  : Yes
Тип обложки                              : Cover (front)
MIME-тип обложки                         : image/jpeg

Аудио
Формат                                   : FLAC
Формат/Информация                        : Free Lossless Audio Codec
Продолжительность                        : 1 м. 50 с.
Вид битрейта                             : Переменный
Битрейт                                  : 1570 Кбит/сек
Каналы                                   : 2 канала
Channel layout                           : L R
Частота                                  : 44,1 КГц
Битовая глубина                          : 24 бит
Метод сжатия                             : Без потерь
Размер потока                            : 20,6 Мбайт (98%)
Библиотека кодирования                   : libFLAC 1.2.1 (UTC 2007-09-17)

Спектрограммы

pic
Miami Nights 1984 - Turbulence (2012) Flac.torrent
Трекер: Зарегистрирован

magnet ссылка

 


Скачать .torrent

19 KB

Статус: проверено (by E IL o T IR i X в 16-Мар-19 00:29)
Зарегистрирован: 15-Мар-19 11:47
Скачан: 27 раз
Размер: 464 MB | 
Поблагодарили:
Скачать (Synthwave / Dreamwave / Electronic) Miami Nights 1984 - Turbulence (2012) [FLAC, (tracks), lossless] торрент
 


Похожие раздачи

Текущее время: 21-Мар 14:52

Часовой пояс: GMT + 3



Вы не можете начинать темы
Вы не можете отвечать на сообщения
Вы не можете редактировать свои сообщения
Вы не можете удалять свои сообщения
Вы не можете голосовать в опросах
Вы не можете прикреплять файлы к сообщениям
Вы не можете скачивать файлы