Loading...
Error
 

Скачать торрент (Hard Rock) Voices Of Extreme - Mach III Complete - 2018 [FLAC, image +.cue, lossless]

 
Автор Сообщение

trygg

post 12-Апр-19 23:36


Voices Of Extreme - Mach III Complete


pic
Год издания: 2018
Страна: USA pic
Жанр: Hard Rock
Продолжительность: 00:42:00
Лейбл издания: ℗ Z Records
Страна-выпуска диска: England pic
Номер по каталогу: ZR0497205
Формат: FLAC
Битрейт аудио: Lossless
Тип рипа: image +.cue
Наличие сканов в содержимом раздачи: да

pic
Трэклист
pic
01. Martyr (3:02)
02. Lay Me Down (3:13)
03. Call My Name (3:17)
04. Foolish Beat (4:13)
05. Girl Gone Crazy (3:37)
06. Landslide (3:14)
07. Lovers and Losers (3:45)
08. Apocolypse (4:13)
09. Unbroken (3:41)
10. Black Betty 2018 (3:01)
11. More Than Anything (3:12)
12. Give Me Your Love (3:33)

pic
Лог создания рипа

Код:

Exact Audio Copy V1.3 from 2. September 2016

Отчёт EAC об извлечении, выполненном 16. июня 2018, 18:32

VOICES OF EXTREME / Mach III Complete

Дисковод: HL-DT-STDVDRAM GU40N   Adapter: 1  ID: 0

Режим чтения                 : Достоверность
Использование точного потока : Да
Отключение кэша аудио        : Да
Использование указателей C2  : Нет

Коррекция смещения при чтении                     : 103
Способность читать области Lead-in и Lead-out     : Нет
Заполнение пропущенных сэмплов тишиной            : Да
Удаление блоков с тишиной в начале и конце        : Нет
При вычислениях CRC использовались нулевые сэмплы : Да
Интерфейс                                         : Встроенный Win32-интерфейс для Win NT/2000

Выходной формат          : Пользовательский кодировщик
Выбранный битрейт        : 1024 kBit/s
Качество                 : Высокий
Добавление ID3-тега      : Нет
Утилита сжатия           : C:\Program Files (x86)\Exact Audio Copy\Flac\flac.exe
Дополнительные параметры :  -V -8 -T "Date=%year%" -T "Genre=%genre%" %source%

TOC извлечённого CD

     Трек |   Старт  | Длительность | Начальный сектор | Конечный сектор
    ---------------------------------------------------------------------
       1  |  0:00.00 |    3:01.50   |           0      |      13624
       2  |  3:01.50 |    3:12.50   |       13625      |      28074
       3  |  6:14.25 |    3:17.33   |       28075      |      42882
       4  |  9:31.58 |    4:12.49   |       42883      |      61831
       5  | 13:44.32 |    3:37.22   |       61832      |      78128
       6  | 17:21.54 |    3:14.18   |       78129      |      92696
       7  | 20:35.72 |    3:44.39   |       92697      |     109535
       8  | 24:20.36 |    4:13.33   |      109536      |     128543
       9  | 28:33.69 |    3:40.56   |      128544      |     145099
      10  | 32:14.50 |    3:01.10   |      145100      |     158684
      11  | 35:15.60 |    3:11.73   |      158685      |     173082
      12  | 38:27.58 |    3:32.43   |      173083      |     189025

Характеристики диапазона извлечения и сообщения об ошибках

Выбранный диапазон

     Имя файла C:\Users\Desktop\VOICES OF EXTREME - Mach III Complete 2018\VOICES OF EXTREME - Mach III Complete.wav

     Пиковый уровень 100.0 %
     Скорость извлечения 1.9 X
     Качество диапазона 100.0 %
     CRC теста A9F32F2D
     CRC копии A9F32F2D
     Копирование... OK

Ошибок не произошло

AccurateRip: сводка

Трек  1  отсутствует в базе данных
Трек  2  отсутствует в базе данных
Трек  3  отсутствует в базе данных
Трек  4  отсутствует в базе данных
Трек  5  отсутствует в базе данных
Трек  6  отсутствует в базе данных
Трек  7  отсутствует в базе данных
Трек  8  отсутствует в базе данных
Трек  9  отсутствует в базе данных
Трек 10  отсутствует в базе данных
Трек 11  отсутствует в базе данных
Трек 12  отсутствует в базе данных

Ни одного трека нет в базе AccurateRip

Конец отчёта
Индексная карта (non-compilant .cue)

Код:

REM GENRE "Hard Rock"
REM DATE 2018
REM DISCID 9909D80C
REM COMMENT "ExactAudioCopy v1.3"
PERFORMER "VOICES OF EXTREME"
TITLE "Mach III Complete "
REM COMPOSER ""
FILE "VOICES OF EXTREME - Mach III Complete.flac" WAVE
  TRACK 01 AUDIO
    TITLE "Martyr"
    PERFORMER "VOICES OF EXTREME"
    REM COMPOSER "VOICES OF EXTREME"
    INDEX 01 00:00:00
  TRACK 02 AUDIO
    TITLE "Lay Me Down"
    PERFORMER "VOICES OF EXTREME"
    REM COMPOSER "VOICES OF EXTREME"
    INDEX 00 02:59:50
    INDEX 01 03:01:50
  TRACK 03 AUDIO
    TITLE " Call My Name"
    PERFORMER "VOICES OF EXTREME"
    REM COMPOSER "VOICES OF EXTREME"
    INDEX 00 06:12:25
    INDEX 01 06:14:25
  TRACK 04 AUDIO
    TITLE "Foolish Beat"
    PERFORMER "VOICES OF EXTREME"
    REM COMPOSER "VOICES OF EXTREME"
    INDEX 00 09:29:58
    INDEX 01 09:31:58
  TRACK 05 AUDIO
    TITLE "Girl Gone Crazy"
    PERFORMER "VOICES OF EXTREME"
    REM COMPOSER "VOICES OF EXTREME"
    INDEX 00 13:42:32
    INDEX 01 13:44:32
  TRACK 06 AUDIO
    TITLE "Landslide"
    PERFORMER "VOICES OF EXTREME"
    REM COMPOSER "VOICES OF EXTREME"
    INDEX 00 17:19:54
    INDEX 01 17:21:54
  TRACK 07 AUDIO
    TITLE "Lovers and Losers"
    PERFORMER "VOICES OF EXTREME"
    REM COMPOSER "VOICES OF EXTREME"
    INDEX 00 20:33:72
    INDEX 01 20:35:72
  TRACK 08 AUDIO
    TITLE "Apocolypse"
    PERFORMER "VOICES OF EXTREME"
    REM COMPOSER "VOICES OF EXTREME"
    INDEX 00 24:18:36
    INDEX 01 24:20:36
  TRACK 09 AUDIO
    TITLE "Unbroken"
    PERFORMER "VOICES OF EXTREME"
    REM COMPOSER "VOICES OF EXTREME"
    INDEX 00 28:31:69
    INDEX 01 28:33:69
  TRACK 10 AUDIO
    TITLE "Black Betty 2018"
    PERFORMER "VOICES OF EXTREME"
    REM COMPOSER "VOICES OF EXTREME"
    INDEX 00 32:12:50
    INDEX 01 32:14:50
  TRACK 11 AUDIO
    TITLE "More Than Anything"
    PERFORMER "VOICES OF EXTREME"
    REM COMPOSER "VOICES OF EXTREME"
    INDEX 00 35:13:60
    INDEX 01 35:15:60
  TRACK 12 AUDIO
    TITLE "Give Me Your Love"
    PERFORMER "VOICES OF EXTREME"
    REM COMPOSER "VOICES OF EXTREME"
    INDEX 00 38:25:58
    INDEX 01 38:27:58

pic
для ознакомления:


pic
pic
Vоiсеs Оf Ехtrеmе - Масh III Соmрlеtе (2018) FLAC.torrent
Трекер: Зарегистрирован

magnet ссылка

 


Скачать .torrent

14 KB

Статус: проверено (by E IL o T IR i X в 13-Апр-19 00:09)
Зарегистрирован: 12-Апр-19 23:36
Скачан: 3 раза
Размер: 332 MB | 
Поблагодарили:
Скачать (Hard Rock) Voices Of Extreme - Mach III Complete - 2018 [FLAC, image +.cue, lossless] торрент
 


Похожие раздачи

Текущее время: 17-Июн 16:20

Часовой пояс: GMT + 3



Вы не можете начинать темы
Вы не можете отвечать на сообщения
Вы не можете редактировать свои сообщения
Вы не можете удалять свои сообщения
Вы не можете голосовать в опросах
Вы не можете прикреплять файлы к сообщениям
Вы не можете скачивать файлы