Loading...
Error
 

Скачать торрент Судьба: Начало / Fate/Zero [S01-02] (01-25 Серия из 25) ( Аоки Эй) [2014, аниме, мультфильм, фэнтези, боевик, HDRip] [DUB] [СВ-дубль]

 
Автор Сообщение

mayson95

post 15-Апр-19 13:38

pic
Судьба: Начало / Fate/Zero [S01-02]

Год выпуска:2011-2012
Страна: Япония, UFO Table
Жанр: аниме, мультфильм, фэнтези, боевик, ....
Продолжительность: 24х ~00:25:00 (*)
Перевод: Профессиональный Дубляж (озвучено СВ-дубль по заказу МедиаФильм, Телеканал FAN)
Субтитры: Русские (Полные)
В ролях: Аяко Кавасуми, Кари Уолгрен, Саяка Охара, Даики Накамура, Криспин Фриман, Бриджит Хоффман, Мэттью Мерсер, Рикия Кояма, Люсьен Додж, Намикава Даисукэ
Режиссёр: Аоки Эй
Описание: Двести лет назад три могущественных клана создали в далекой Японии на землях городка Фуюки арену магической битвы за Святой Грааль. Смысл ритуала прост — семеро участников-магов, которых зовут Мастерами, по воле Грааля призывают себе из Акаши, мирового эфира, бойцов-Слуг — героев былого и грядущего. Дальше правил нет, и остаться должен только один. Ему и достанется величайший артефакт, который выполнит любое желание победителя. Вот только первые три войны окончились тотальным истреблением сторон и не достигли цели. Грядет Четвертая война, и на этот раз все знамения говорят — Святой Грааль будет явлен и обретет хозяина!
Качество: HDRip / Исходник: BDRip 1080p
Формат: AVI
Видео кодек: XviD
Аудио кодек: AC3
Видео: 720x400 (1.80:1), 23.976 fps, XviD build 73 ~1553 kbps avg, 0.23 bit/pixel
Аудио #1 : AC-3, 48.0 KHz, 2 ch, 192 Kbps, CBR (Russian) [Дубляж]
Аудио #2 : AC-3, 48.0 KHz, 2 ch, 192 Kbps, CBR (Japan) [Оригинал]
*1 серия технические данные
Продолжительность : 00:47:53
Видео: XviD, 720x400 (16:9), 23.976 fps, 1357 Кбит/сек (0.197 bit/pixel)
Аудио #1 : AC-3, 48.0 KHz, 2 ch, 192 Kbps, CBR (Russian) [Дубляж]
Аудио #2 : AC-3, 48.0 KHz, 2 ch, 192 Kbps, CBR (Japan) [Оригинал]
MediaInfo

Код:

Общее
Полное имя                               : G:\Sudb1.Na4alo.D.2012.S01-02.HDRip.Deadmauvlad\Sudb1.Na4alo.D.2012.S01.HDRip.Ep.01.Deadmauvlad\Sudb1.Na4alo.D.2012.HDRip.Ep.01.Deadmauvlad.avi
Формат                                   : AVI
Формат/Информация                        : Audio Video Interleave
Размер файла                             : 602 Мбайт
Продолжительность                        : 47 м. 53 с.
Общий поток                              : 1757 Кбит/сек
Название фильма                          : Sudb1.Na4alo.D.2012.HDRip.Ep.01.Deadmauvlad
Режиссёр                                 : Deadmauvlad
Жанр                                     : Action/Adventure/Drama
Программа кодирования                    : VirtualDubMod 1.5.10.3 |  (build 2550/release)
Формат оригинала/Имя                     : Anime
Авторское право                          : Deadmauvlad
Примечание                               : Endoder by Deadmauvlad

Видео
Идентификатор                            : 0
Формат                                   : MPEG-4 Visual
Профиль формата                          : Advanced [email protected]
Настройки формата                        : BVOP1 / Custom Matrix
Параметр BVOP формата                    : 1
Параметр QPel формата                    : Нет
Параметр GMC формата                     : Без точки перехода
Параметр матрицы формата                 : Выборочная
Идентификатор кодека                     : XVID
Идентификатор кодека/Подсказка           : XviD
Продолжительность                        : 47 м. 53 с.
Битрейт                                  : 1358 Кбит/сек
Ширина                                   : 720 пикселей
Высота                                   : 400 пикселей
Соотношение сторон                       : 16:9
Частота кадров                           : 23,976 (24000/1001) кадра/сек
Цветовое пространство                    : YUV
Субдискретизация насыщенности            : 4:2:0
Битовая глубина                          : 8 бит
Тип развёртки                            : Прогрессивная
Метод сжатия                             : С потерями
Бит/(Пиксели*Кадры)                      : 0.197
Размер потока                            : 465 Мбайт (77%)
Библиотека кодирования                   : XviD 73

Аудио #1
Идентификатор                            : 1
Формат                                   : AC-3
Формат/Информация                        : Audio Coding 3
Коммерческое название                    : Dolby Digital
Идентификатор кодека                     : 2000
Продолжительность                        : 47 м. 53 с.
Вид битрейта                             : Постоянный
Битрейт                                  : 192 Кбит/сек
Каналы                                   : 2 канала
Channel layout                           : L R
Частота                                  : 48,0 КГц
Частота кадров                           : 31,250 кадров/сек (1536 SPF)
Битовая глубина                          : 16 бит
Метод сжатия                             : С потерями
Размер потока                            : 65,8 Мбайт (11%)
Выравнивание                             : Разделение по промежуткам
Продолжительность промежутка             : 42  мс. (1,00 видеокадр)
Время предзагрузки промежутка            : 500  мс.
ServiceKind/String                       : Complete Main

Аудио #2
Идентификатор                            : 2
Формат                                   : AC-3
Формат/Информация                        : Audio Coding 3
Коммерческое название                    : Dolby Digital
Идентификатор кодека                     : 2000
Продолжительность                        : 47 м. 53 с.
Вид битрейта                             : Постоянный
Битрейт                                  : 192 Кбит/сек
Каналы                                   : 2 канала
Channel layout                           : L R
Частота                                  : 48,0 КГц
Частота кадров                           : 31,250 кадров/сек (1536 SPF)
Битовая глубина                          : 16 бит
Метод сжатия                             : С потерями
Размер потока                            : 65,8 Мбайт (11%)
Выравнивание                             : Разделение по промежуткам
Продолжительность промежутка             : 42  мс. (1,00 видеокадр)
Время предзагрузки промежутка            : 500  мс.
ServiceKind/String                       : Complete Main

Рип Deadmauvlad
Рейтинг
picpic
MI

Код:

Общее
Полное имя                               : G:\Sudb1.Na4alo.D.2012.S01-02.HDRip.Deadmauvlad\Sudb1.Na4alo.D.2012.S01.HDRip.Ep.01.Deadmauvlad\Sudb1.Na4alo.D.2012.HDRip.Ep.02.Deadmauvlad.avi
Формат                                   : AVI
Формат/Информация                        : Audio Video Interleave
Размер файла                             : 350 Мбайт
Продолжительность                        : 25 м. 4 с.
Общий поток                              : 1952 Кбит/сек
Название фильма                          : Sudb1.Na4alo.D.2012.HDRip.Ep.02.Deadmauvlad
Режиссёр                                 : Deadmauvlad
Жанр                                     : Action/Adventure/Drama
Программа кодирования                    : VirtualDubMod 1.5.10.3 | (build 2550/release)
Формат оригинала/Имя                     : Anime
Авторское право                          : Deadmauvlad
Примечание                               : Endoder by Deadmauvlad

Видео
Идентификатор                            : 0
Формат                                   : MPEG-4 Visual
Профиль формата                          : Advanced [email protected]
Настройки формата                        : BVOP1 / Custom Matrix
Параметр BVOP формата                    : 1
Параметр QPel формата                    : Нет
Параметр GMC формата                     : Без точки перехода
Параметр матрицы формата                 : Выборочная
Идентификатор кодека                     : XVID
Идентификатор кодека/Подсказка           : XviD
Продолжительность                        : 25 м. 4 с.
Битрейт                                  : 1554 Кбит/сек
Ширина                                   : 720 пикселей
Высота                                   : 400 пикселей
Соотношение сторон                       : 16:9
Частота кадров                           : 23,976 (24000/1001) кадра/сек
Цветовое пространство                    : YUV
Субдискретизация насыщенности            : 4:2:0
Битовая глубина                          : 8 бит
Тип развёртки                            : Прогрессивная
Метод сжатия                             : С потерями
Бит/(Пиксели*Кадры)                      : 0.225
Размер потока                            : 279 Мбайт (80%)
Библиотека кодирования                   : XviD 73

Аудио #1
Идентификатор                            : 1
Формат                                   : AC-3
Формат/Информация                        : Audio Coding 3
Коммерческое название                    : Dolby Digital
Идентификатор кодека                     : 2000
Продолжительность                        : 25 м. 4 с.
Вид битрейта                             : Постоянный
Битрейт                                  : 192 Кбит/сек
Каналы                                   : 2 канала
Channel layout                           : L R
Частота                                  : 48,0 КГц
Частота кадров                           : 31,250 кадров/сек (1536 SPF)
Битовая глубина                          : 16 бит
Метод сжатия                             : С потерями
Размер потока                            : 34,4 Мбайт (10%)
Выравнивание                             : Разделение по промежуткам
Продолжительность промежутка             : 42  мс. (1,00 видеокадр)
Время предзагрузки промежутка            : 500  мс.
ServiceKind/String                       : Complete Main

Аудио #2
Идентификатор                            : 2
Формат                                   : AC-3
Формат/Информация                        : Audio Coding 3
Коммерческое название                    : Dolby Digital
Идентификатор кодека                     : 2000
Продолжительность                        : 25 м. 4 с.
Вид битрейта                             : Постоянный
Битрейт                                  : 192 Кбит/сек
Каналы                                   : 2 канала
Channel layout                           : L R
Частота                                  : 48,0 КГц
Частота кадров                           : 31,250 кадров/сек (1536 SPF)
Битовая глубина                          : 16 бит
Метод сжатия                             : С потерями
Размер потока                            : 34,4 Мбайт (10%)
Выравнивание                             : Разделение по промежуткам
Продолжительность промежутка             : 42  мс. (1,00 видеокадр)
Время предзагрузки промежутка            : 500  мс.
ServiceKind/String                       : Complete Main
Скриншоты
Sudb1.Na4alo.D.2012.S01-02.HDRip.Deadmauvlad.torrent
 СЕРЕБРЯНАЯ РАЗДАЧА! СКАЧАННОЕ ЗАСЧИТЫВАЕТСЯ ТОЛЬКО НАПОЛОВИНУ! 
Вечный
Трекер: Зарегистрирован

magnet ссылка

 


Скачать .torrent

29 KB

Статус: проверено (by Snowden в 15-Апр-19 13:47)
Зарегистрирован: 15-Апр-19 13:38
Скачан: 32 раза
Размер: 8.66 GB | 
Поблагодарили:
Скачать Судьба: Начало / Fate/Zero [S01-02] (01-25 Серия из 25) ( Аоки Эй) [2014, аниме, мультфильм, фэнтези, боевик, HDRip] [DUB] [СВ-дубль] торрент
 


Похожие раздачи

Snowden

post 15-Апр-19 13:52 (спустя 14 минут)

Ц Цитата:

Sudb1.Na4alo.D.2012.HDRip.Ep.01.Deadmauvlad.srt
В оформление укажите какой язык субтитров.
Ц Цитата:

Аудио #2 : AC-3, 48.0 KHz, 2 ch, 192 Kbps, CBR (Russian) [Оригинал]
Может быть Japan?

Ckau

post 15-Апр-19 15:07 (спустя 1 час 15 минут)

mayson95, спасибо, а планируется ли 720p?

человекь

post 15-Апр-19 18:53 (спустя 3 часа)

Ц mayson95 писал(а):

Страна: Япония, UFO Table
Страна? Ну и название студии слитно пишется.

Текущее время: 18-Июн 20:39

Часовой пояс: GMT + 3



Вы не можете начинать темы
Вы не можете отвечать на сообщения
Вы не можете редактировать свои сообщения
Вы не можете удалять свои сообщения
Вы не можете голосовать в опросах
Вы не можете прикреплять файлы к сообщениям
Вы не можете скачивать файлы