Loading...
Error
 

Скачать торрент (Glam, Hard Rock) Suzi Quatro -No Control - 2019 [FLAC, image +.cue, lossless]

 
Автор Сообщение

trygg

post 14-Май-19 09:29


Suzi Quatro -No Control


pic
Год издания: 2019
Страна: USA pic
Жанр: Glam, Hard Rock
Продолжительность: 00:52:25
Лейбл издания: Victor
Страна-выпуска диска: Japan pic
Номер по каталогу: MICP-30113
Формат: FLAC
Битрейт аудио: Lossless
Тип рипа: image +.cue
Наличие сканов в содержимом раздачи: да

pic
Трэклист
pic
01. No Soul/No Control (3:48)
02. Going Home (3:45)
03. Strings (4:15)
04. Love Isn't Fair (3:05)
05. Macho Man (3:43)
06. Easy Pickings (4:26)
07. Bass Line (4:34)
08. Don't Do Me Wrong (3:43)
09. Heavy Duty (3:09)
10. I Can Teach You To Fly (4:27)
11. Going Down Blues (5:06)
12. HeartT On The Line (3:42)
13. Leopard Skin Pillbox Hat (4:43)

pic
Лог создания рипа

Код:

Exact Audio Copy V1.0 beta 6 from 9. April 2015

EAC extraction logfile from 12. May 2019, 20:16

Suzi Quatro / No Control

Used drive  : Optiarc DVD RW AD-7243S   Adapter: 2  ID: 0

Read mode               : Secure
Utilize accurate stream : Yes
Defeat audio cache      : Yes
Make use of C2 pointers : No

Read offset correction                      : 48
Overread into Lead-In and Lead-Out          : No
Fill up missing offset samples with silence : Yes
Delete leading and trailing silent blocks   : No
Null samples used in CRC calculations       : Yes
Used interface                              : Installed external ASPI interface

Used output format              : User Defined Encoder
Selected bitrate                : 768 kBit/s
Quality                         : High
Add ID3 tag                     : No
Command line compressor         : D:\Flac\flac-1.3.1-win\win64\flac.exe
Additional command line options :  -V -8 -T "Date=%year%" -T "Genre=%genre%" %source%

TOC of the extracted CD

     Track |   Start  |  Length  | Start sector | End sector
    ---------------------------------------------------------
        1  |  0:00.00 |  3:47.61 |         0    |    17085
        2  |  3:47.61 |  3:44.68 |     17086    |    33953
        3  |  7:32.54 |  4:15.25 |     33954    |    53103
        4  | 11:48.04 |  3:04.67 |     53104    |    66970
        5  | 14:52.71 |  3:43.07 |     66971    |    83702
        6  | 18:36.03 |  4:26.34 |     83703    |   103686
        7  | 23:02.37 |  4:33.70 |    103687    |   124231
        8  | 27:36.32 |  3:42.72 |    124232    |   140953
        9  | 31:19.29 |  3:08.38 |    140954    |   155091
       10  | 34:27.67 |  4:26.40 |    155092    |   175081
       11  | 38:54.32 |  5:05.61 |    175082    |   198017
       12  | 44:00.18 |  3:41.68 |    198018    |   214660
       13  | 47:42.11 |  4:42.54 |    214661    |   235864

Range status and errors

Selected range

     Filename D:\Suzi Quatro[2019]No Control (Japan-MICP-30113)\Suzi Quatro - No Control.wav

     Peak level 100.0 %
     Extraction speed 3.8 X
     Range quality 100.0 %
     Test CRC 936662EB
     Copy CRC 936662EB
     Copy OK

No errors occurred

AccurateRip summary

Track  1  not present in database
Track  2  not present in database
Track  3  not present in database
Track  4  not present in database
Track  5  not present in database
Track  6  not present in database
Track  7  not present in database
Track  8  not present in database
Track  9  not present in database
Track 10  not present in database
Track 11  not present in database
Track 12  not present in database
Track 13  not present in database

None of the tracks are present in the AccurateRip database

End of status report
Индексная карта (non-compilant .cue)

Код:

REM GENRE Rock
REM DATE 2019
REM DISCID BB0C480D
REM COMMENT "ExactAudioCopy v1.0b6"
PERFORMER "Suzi Quatro"
TITLE "No Control"
FILE "Suzi Quatro - No Control.Flac" WAVE
  TRACK 01 AUDIO
    TITLE "NO SOUL/NO CONTRO"
    PERFORMER "Suzi Quatro"
    INDEX 01 00:00:00
  TRACK 02 AUDIO
    TITLE "GOING HOME"
    PERFORMER "Suzi Quatro"
    INDEX 01 03:47:61
  TRACK 03 AUDIO
    TITLE "STRINGS "
    PERFORMER "Suzi Quatro"
    INDEX 01 07:32:54
  TRACK 04 AUDIO
    TITLE "LOVE ISN'T FAIR"
    PERFORMER "Suzi Quatro"
    INDEX 01 11:48:04
  TRACK 05 AUDIO
    TITLE "MACHO MAN "
    PERFORMER "Suzi Quatro"
    INDEX 01 14:52:71
  TRACK 06 AUDIO
    TITLE "EASY PICKINGS "
    PERFORMER "Suzi Quatro"
    INDEX 01 18:36:03
  TRACK 07 AUDIO
    TITLE "BASS LINE "
    PERFORMER "Suzi Quatro"
    INDEX 01 23:02:37
  TRACK 08 AUDIO
    TITLE "DON'T DO ME WRONG"
    PERFORMER "Suzi Quatro"
    INDEX 01 27:36:32
  TRACK 09 AUDIO
    TITLE "HEAVY DUTY"
    PERFORMER "Suzi Quatro"
    INDEX 01 31:19:29
  TRACK 10 AUDIO
    TITLE "I CAN TEACH YOU TO FLY"
    PERFORMER "Suzi Quatro"
    INDEX 01 34:27:67
  TRACK 11 AUDIO
    TITLE "GOING DOWN BLUES"
    PERFORMER "Suzi Quatro"
    INDEX 01 38:54:32
  TRACK 12 AUDIO
    TITLE "HEART ON THE LINE "
    PERFORMER "Suzi Quatro"
    INDEX 00 43:58:18
    INDEX 01 44:00:18
  TRACK 13 AUDIO
    TITLE "LEOPARD SKIN PILLBOX HAT "
    PERFORMER "Suzi Quatro"
    INDEX 01 47:42:11

pic
для ознакомления:


pic
pic
Suzi Quatro(2019)No Control (Japan-MICP-30113).torrent
Трекер: Зарегистрирован

magnet ссылка

 


Скачать .torrent

14 KB

Статус: проверено (by Snowden в 14-Май-19 10:45)
Зарегистрирован: 14-Май-19 09:29
Скачан: 6 раз
Размер: 592 MB | 
Поблагодарили:
Скачать (Glam, Hard Rock) Suzi Quatro -No Control - 2019 [FLAC, image +.cue, lossless] торрент
 


Похожие раздачи

Текущее время: 23-Май 02:39

Часовой пояс: GMT + 3



Вы не можете начинать темы
Вы не можете отвечать на сообщения
Вы не можете редактировать свои сообщения
Вы не можете удалять свои сообщения
Вы не можете голосовать в опросах
Вы не можете прикреплять файлы к сообщениям
Вы не можете скачивать файлы