Loading...
Error
 

Скачать торрент Небесный замок Лапута / Tenku no Shiro Rapyuta / Laputa: Castle in the Sky (Хаяо Миядзаки) [1986, приключения, фэнтези, романтика, BDRip 1080p] HEVC от R.G. RustorRipper's

 
Автор Сообщение

Alex_A

post 24-Май-19 20:32

pic
Небесный замок Лапута
Tenku no Shiro Rapyuta / 天空の城ラピュタ / Laputa: Castle in the Sky

Год выпуска: 1986
Страна: Япония
Жанр: приключения, фэнтези, романтика
Тип: полнометражный фильм
Продолжительность: 02:04:32
Перевод: Дублированный
Субтитры: Русские [anime4ok], английские
Режиссёр: Хаяо Миядзаки
Студия: Ghibli
Описание: Для юного Пазу приключения начинаются, когда девочка Сита буквально спускается ему в руки с неба. Загадочный медальон не даёт ей погибнуть, когда она падает с дирижабля, сбежав от своих похитителей. Желание овладеть им не даёт покоя пиратам, военным и правительственным агентам, ведь Лапута, небесный замок, — для одних — лишь легенда, для других — несметное сокровище, для третьих — вершина человеческой цивилизации, — город, парящий высоко над землёй, путь к которому может указать лишь таинственный летучий камень.
Качество: BDRip-HEVC 1080p
Формат: MKV
Видео кодек: [email protected]
Аудио кодек: AC3, FLAC
Видео: 1920x1036, 23.976 fps, HEVC, ~4740 kbps, 10bit
Аудио: Rus, 48 kHz/16-bit, AC3 2.0, ~192 kbps | Дубляж
Аудио: Rus, 48 kHz/16-bit, AC3 2.0, ~192 kbps | Tycoon
Аудио: Rus, 48 kHz/16-bit, AC3 2.0, ~192 kbps | Киномания
Аудио: Jpn, 48 kHz/16-bit, FLAC 2.0, ~568 kbps | Оригинал
Навигация по главам: Отсутствует
Автор рипа: Alex_A
Другие работы Хаяо Миядзаки

pic
pic pic
Внимание!
- H.265/HEVC (High Efficiency Video Coding) - это новый стандарт кодирования видео.
- Стандарт H.265/HEVC является логическим продолжением стандарта H.264/AVC (Advanced Video Coding), и характеризуется более эффективными алгоритмами сжатия, а также поддержкой высокого разрешения вплоть до 8K UHD (8192x4320). Первая версия стандарта H.265 была опубликована в начале 2013 года.
- Рипы в фомате HEVC поддерживается не всеми аппаратными проигрывателями.
- Для корректного воспроизведения может потребоваться обновление ПО.
- Владельцам несовместимого железа просьба не беспокоить, есть альтернативные релизы.
Трейлер
Медиаинфо
General
Unique ID : 64484500430414120811683343804919641586 (0x308343561DBDEDE05C67587AA27EF5F2)
Complete name : d:\HEVC\Laputa - Castle in the Sky\Laputa.-.Castle.in.the.Sky.1986.1080p_HEVCCLUB.mkv
Format : Matroska
Format version : Version 4
File size : 5.12 GiB
Duration : 2 h 4 min
Overall bit rate mode : Variable
Overall bit rate : 5 887 kb/s
Movie name : Laputa - Castle in the Sky (1986) - HEVC CLUB
Encoded date : UTC 2019-05-23 22:32:16
Writing application : mkvmerge v33.1.0 ('Primrose') 64-bit
Writing library : libebml v1.3.7 + libmatroska v1.5.0
Cover : Yes
Attachments : cover.jpg

Video
ID : 1
Format : HEVC
Format/Info : High Efficiency Video Coding
Format profile : Main [email protected]@High
Codec ID : V_MPEGH/ISO/HEVC
Duration : 2 h 4 min
Bit rate : 4 740 kb/s
Width : 1 920 pixels
Height : 1 036 pixels
Display aspect ratio : 1.85:1
Frame rate mode : Constant
Frame rate : 23.976 (24000/1001) FPS
Color space : YUV
Chroma subsampling : 4:2:0
Bit depth : 10 bits
Bits/(Pixel*Frame) : 0.099
Stream size : 4.12 GiB (81%)
Title : HEVC CLUB
Writing library : x265 3.0_Au+14-c7e5878bdd31:[Windows][GCC 8.3.0][64 bit] 10bit
Encoding settings : cpuid=1111039 / frame-threads=3 / numa-pools=8 / wpp / no-pmode / no-pme / no-psnr / no-ssim / log-level=2 / input-csp=1 / input-res=1920x1036 / interlace=0 / total-frames=0 / level-idc=41 / high-tier=1 / uhd-bd=0 / ref=5 / no-allow-non-conformance / no-repeat-headers / annexb / no-aud / no-hrd / info / hash=0 / no-temporal-layers / open-gop / min-keyint=23 / keyint=250 / gop-lookahead=0 / bframes=10 / b-adapt=2 / b-pyramid / bframe-bias=0 / rc-lookahead=60 / lookahead-slices=3 / scenecut=40 / radl=0 / no-splice / no-intra-refresh / ctu=64 / min-cu-size=8 / no-rect / no-amp / max-tu-size=32 / tu-inter-depth=3 / tu-intra-depth=3 / limit-tu=0 / rdoq-level=1 / dynamic-rd=2.00 / no-ssim-rd / signhide / no-tskip / nr-intra=0 / nr-inter=0 / no-constrained-intra / no-strong-intra-smoothing / max-merge=2 / limit-refs=0 / no-limit-modes / me=2 / subme=5 / merange=57 / temporal-mvp / weightp / weightb / no-analyze-src-pics / deblock=-2:-2 / no-sao / no-sao-non-deblock / rd=3 / no-early-skip / no-rskip / no-fast-intra / no-tskip-fast / no-cu-lossless / no-b-intra / no-splitrd-skip / rdpenalty=0 / psy-rd=1.75 / psy-rdoq=2.50 / no-rd-refine / no-lossless / cbqpoffs=0 / crqpoffs=0 / rc=crf / crf=23.0 / qcomp=0.70 / qpstep=4 / stats-write=0 / stats-read=0 / vbv-maxrate=50000 / vbv-bufsize=50000 / vbv-init=0.9 / crf-max=0.0 / crf-min=0.0 / ipratio=1.40 / pbratio=1.10 / aq-mode=2 / aq-strength=0.20 / cutree / zone-count=0 / no-strict-cbr / qg-size=32 / no-rc-grain / qpmax=69 / qpmin=0 / no-const-vbv / sar=1 / overscan=0 / videoformat=5 / range=0 / colorprim=2 / transfer=2 / colormatrix=2 / chromaloc=0 / display-window=0 / max-cll=0,0 / min-luma=0 / max-luma=1023 / log2-max-poc-lsb=8 / vui-timing-info / vui-hrd-info / slices=1 / opt-qp-pps / opt-ref-list-length-pps / no-multi-pass-opt-rps / scenecut-bias=0.05 / no-opt-cu-delta-qp / aq-motion / no-hdr / no-hdr-opt / no-dhdr10-opt / no-idr-recovery-sei / analysis-reuse-level=5 / scale-factor=0 / refine-intra=0 / refine-inter=0 / refine-mv=0 / refine-ctu-distortion=0 / no-limit-sao / ctu-info=0 / no-lowpass-dct / refine-analysis-type=0 / copy-pic=1 / max-ausize-factor=1.0 / no-dynamic-refine / no-single-sei / no-hevc-aq / no-svt / qp-adaptation-range=1.00
Default : Yes
Forced : Yes

Audio #1
ID : 2
Format : AC-3
Format/Info : Audio Coding 3
Commercial name : Dolby Digital
Codec ID : A_AC3
Duration : 2 h 4 min
Bit rate mode : Constant
Bit rate : 192 kb/s
Channel(s) : 2 channels
Channel layout : L R
Sampling rate : 48.0 kHz
Frame rate : 31.250 FPS (1536 SPF)
Bit depth : 16 bits
Compression mode : Lossy
Stream size : 171 MiB (3%)
Title : Dub [Сонотек/Ruscico]
Language : Russian
Service kind : Complete Main
Default : No
Forced : No

Audio #2
ID : 3
Format : AC-3
Format/Info : Audio Coding 3
Commercial name : Dolby Digital
Codec ID : A_AC3
Duration : 2 h 4 min
Bit rate mode : Constant
Bit rate : 192 kb/s
Channel(s) : 2 channels
Channel layout : L R
Sampling rate : 48.0 kHz
Frame rate : 31.250 FPS (1536 SPF)
Bit depth : 16 bits
Compression mode : Lossy
Stream size : 171 MiB (3%)
Title : MVO [Tycoon]
Language : Russian
Service kind : Complete Main
Default : No
Forced : No

Audio #3
ID : 4
Format : AC-3
Format/Info : Audio Coding 3
Commercial name : Dolby Digital
Codec ID : A_AC3
Duration : 2 h 4 min
Bit rate mode : Constant
Bit rate : 192 kb/s
Channel(s) : 2 channels
Channel layout : L R
Sampling rate : 48.0 kHz
Frame rate : 31.250 FPS (1536 SPF)
Bit depth : 16 bits
Compression mode : Lossy
Stream size : 171 MiB (3%)
Title : MVO [Киномания]
Language : Russian
Service kind : Complete Main
Default : No
Forced : No

Audio #4
ID : 5
Format : FLAC
Format/Info : Free Lossless Audio Codec
Codec ID : A_FLAC
Duration : 2 h 4 min
Bit rate mode : Variable
Bit rate : 568 kb/s
Channel(s) : 2 channels
Channel layout : L R
Sampling rate : 48.0 kHz
Frame rate : 10.417 FPS (4608 SPF)
Bit depth : 16 bits
Compression mode : Lossless
Stream size : 506 MiB (10%)
Title : Original
Writing library : Lavf58.26.101
Language : Japanese
Default : No
Forced : No

Text #1
ID : 6
Format : UTF-8
Codec ID : S_TEXT/UTF8
Codec ID/Info : UTF-8 Plain Text
Duration : 2 h 4 min
Bit rate : 54 b/s
Count of elements : 947
Stream size : 49.6 KiB (0%)
Title : anime4ok
Language : Russian
Default : No
Forced : No

Text #2
ID : 7
Format : ASS
Codec ID : S_TEXT/ASS
Codec ID/Info : Advanced Sub Station Alpha
Duration : 2 h 2 min
Bit rate : 65 b/s
Count of elements : 1032
Compression mode : Lossless
Stream size : 58.8 KiB (0%)
Language : English
Default : No
Forced : No
Сравнение скриншотов
Скриншоты
Laputa.-.Castle.in.the.Sky.1986.1080p_HEVCCLUB.torrent
 СЕРЕБРЯНАЯ РАЗДАЧА! СКАЧАННОЕ ЗАСЧИТЫВАЕТСЯ ТОЛЬКО НАПОЛОВИНУ! 
Вечный
Трекер: Зарегистрирован

magnet ссылка

 


Скачать .torrent

13 KB

Статус: проверено (by Cherepah в 24-Май-19 21:16)
Зарегистрирован: 24-Май-19 20:32
Скачан: 65 раз
Размер: 5.12 GB | 
Поблагодарили:
Скачать Небесный замок Лапута / Tenku no Shiro Rapyuta / Laputa: Castle in the Sky (Хаяо Миядзаки) [1986, приключения, фэнтези, романтика, BDRip 1080p] HEVC от R.G. RustorRipper's торрент
 


Похожие раздачи

metrander

post 24-Май-19 20:49 (спустя 17 минут)

Здаров! А будут ли другие работы Хаяо Миядзаки в формате BDRip-HEVC 1080p от вас? Принцесса мононоке, ходячий замок и унесенные призраками!

Alex_A

post 24-Май-19 22:03 (спустя 1 час 14 минут)

metrander
Да, если доживу и осилю. :)
Еще есть "Люпен III: Замок Калиостро" и "Великий детектив Холмс: Фильм", но их я сюда не заливал.

DiaboliK

post 25-Май-19 03:18 (спустя 5 часов)

Alex_A

Уважаю то что выкладываете HEVC контент, и тем более произведение Хаяо, но в дубляже рассинхрон.

Текущее время: 05-Дек 20:20

Часовой пояс: GMT + 3



Вы не можете начинать темы
Вы не можете отвечать на сообщения
Вы не можете редактировать свои сообщения
Вы не можете удалять свои сообщения
Вы не можете голосовать в опросах
Вы не можете прикреплять файлы к сообщениям
Вы не можете скачивать файлы