Loading...
Error
 

Скачать торрент (Synthpop / Outrun / Electronic) d.notive - Sentinel (2016) [FLAC, (tracks), lossless]

 
Автор Сообщение

Слава2312

post 10-Июн-19 00:45

pic


pic

Жанр: Synthpop / Outrun / Electronic
Год издания данного носителя: 2016
Страна-производитель носителя: US
Лейбл: Not On Label (d.notive Self-released)
Каталоговый номер: none
Аудио кодек: FLAC
Тип рипа: tracks
Битрейт аудио: lossless
Продолжительность: 00:50:26
Источник (релизер): pic
Треклист:
[3:36] 01. d.notive - The Rift
[5:49] 02. d.notive - Red Light Syndrome
[6:00] 03. d.notive - Second Chances
[3:49] 04. d.notive - VistaView Motel
[4:24] 05. d.notive - Hell's Highway
[5:38] 06. d.notive - No Turning Back
[2:10] 07. d.notive - Given a Pause...
[4:36] 08. d.notive - Back in the Saddle
[5:06] 09. d.notive - One Way Trip
[5:23] 10. d.notive - Streets of Passion
[3:56] 11. d.notive - Martyr
AUDIOCHECKER

Код:



AUDIOCHECKER v2.0 beta (build 457) - by Dester
~~~~~~~~~~~~~~~~~~~~~~~~~~~~~~~~~~
-=== НЕ РЕДАКТИРУЙТЕ ЭТОТ ФАЙЛ! ===-

Путь: ...\d.notive - Sentinel [2016] Flac

01 -=- d.notive - Sentinel - 01 The Rift.flac -=- CDDA (100%)
02 -=- d.notive - Sentinel - 02 Red Light Syndrome.flac -=- MPEG (79%)
03 -=- d.notive - Sentinel - 03 Second Chances.flac -=- CDDA (100%)
04 -=- d.notive - Sentinel - 04 VistaView Motel.flac -=- CDDA (100%)
05 -=- d.notive - Sentinel - 05 Hell's Highway.flac -=- CDDA (100%)
06 -=- d.notive - Sentinel - 06 No Turning Back.flac -=- CDDA (100%)
07 -=- d.notive - Sentinel - 07 Given a Pause....flac -=- ERROR
08 -=- d.notive - Sentinel - 08 Back in the Saddle.flac -=- CDDA (100%)
09 -=- d.notive - Sentinel - 09 One Way Trip.flac -=- CDDA (100%)
10 -=- d.notive - Sentinel - 10 Streets of Passion.flac -=- CDDA (100%)
11 -=- d.notive - Sentinel - 11 Martyr.flac -=- CDDA (100%)

Сводка 92,10% CDDA

225086260

Замер динамического диапазона (DR)

Код:



foobar2000 1.4.1 / Замер динамического диапазона (DR) 1.1.1
Дата отчёта:    2019-06-10 01:39:39

--------------------------------------------------------------------------------
Анализ:   d.notive / Sentinel
--------------------------------------------------------------------------------

DR         Пики         RMS           Продолжительность трека
--------------------------------------------------------------------------------
DR10      -0.33 дБ   -15.41 дБ      3:36 01-The Rift
DR10       0.00 дБ   -11.87 дБ      5:49 02-Red Light Syndrome
DR10      -0.19 дБ   -11.34 дБ      6:00 03-Second Chances
DR13      -0.50 дБ   -15.90 дБ      3:49 04-VistaView Motel
DR12      -1.31 дБ   -14.70 дБ      4:24 05-Hell's Highway
DR11      -0.61 дБ   -13.09 дБ      5:38 06-No Turning Back
DR9       -0.08 дБ   -11.92 дБ      2:10 07-Given a Pause...
DR10      -0.08 дБ   -11.34 дБ      4:36 08-Back in the Saddle
DR12       0.00 дБ   -13.36 дБ      5:06 09-One Way Trip
DR10       0.00 дБ   -12.32 дБ      5:23 10-Streets of Passion
DR9       -1.19 дБ   -12.23 дБ      3:56 11-Martyr
--------------------------------------------------------------------------------

Количество треков:  11
Реальные значения DR:  DR11

Частота:      44100 Гц
Каналов:      2
Разрядность:     16
Битрейт:      986 кбит/с
Кодек:      FLAC
================================================================================

Спектрограммы

pic
d.notive - Sentinel (2016) Flac.torrent
Трекер: Зарегистрирован

magnet ссылка

 


Скачать .torrent

16 KB

Статус: проверено (by ilyash_rekviem в 10-Июн-19 09:46)
Зарегистрирован: 10-Июн-19 00:45
Скачан: 46 раз
Размер: 383 MB | 
Поблагодарили:
Скачать (Synthpop / Outrun / Electronic) d.notive - Sentinel (2016) [FLAC, (tracks), lossless] торрент
The year is 1985.
 


Похожие раздачи

Текущее время: 16-Сен 16:01

Часовой пояс: GMT + 3



Вы не можете начинать темы
Вы не можете отвечать на сообщения
Вы не можете редактировать свои сообщения
Вы не можете удалять свои сообщения
Вы не можете голосовать в опросах
Вы не можете прикреплять файлы к сообщениям
Вы не можете скачивать файлы