Loading...
Error
 

Скачать торрент National Geographic. Секреты дикой Индии / Secrets of Wild India (1-3 серии из 3) (Дункан Чард) [2012,Документальный, путешествие, исследование, природа, фауна,BDRip 1080p][HEVC][АРК-ТВ]

 
Автор Сообщение

brother225

post 11-Июн-19 21:23

pic
National Geographic. Секреты дикой Индии / Secrets of Wild India

серии 1-3 из 3

Год выпуска: 2012
Страна: Великобритания, Icon Films
Жанр: Документальный, путешествие, исследование, природа, фауна
Продолжительность: 3 x ~ 00:48:00
Перевод: профессиональный одноголосый закадровый, (АРК-ТВ)
Субтитры: отсутствуют
Режиссёр: Дункан Чард
Описание:В дальнем уголке Земли прячется дикая природа Южной Америки. Невероятные ландшафты приютили необычных и удивительных животных. От скалистых вершин Анд, через выжженную пустынную степь, до берегов, на которые обрушивают волны самые суровые моря планеты. Жизнь здесь требует решимости и непреклонности. Для кого тут открываются невероятные возможности но для других это битва за жизнь. Дух первооткрывателей объединяет всех, кто попал под очарование Патагонии. Все это - дикая Патагония.
Качество: BDRip 1080p
Формат: MKV
Видео кодек: x265
Аудио кодек: AC3
Видео: HEVC 1920х1076 25 fps 8545-9987 kb/s
Аудио: AC3, 2 ch, 192 Кбит/с, 48 KHz [RUS]
MediaInfo
Complete name : H:\мои раздачи\SECRETS_OF_WILD_INDIA_hevc\Desert Lions.mkv
Format : Matroska
Format version : Version 4
File size : 2.93 GiB
Duration : 48 min 1 s
Overall bit rate : 8 739 kb/s
Encoded date : UTC 2019-06-11 17:59:18
Writing application : mkvmerge v34.0.0 ('Sight and Seen') 64-bit
Writing library : libebml v1.3.7 + libmatroska v1.5.0

Video
ID : 1
Format : HEVC
Format/Info : High Efficiency Video Coding
Format profile : Main [email protected]@Main
Codec ID : V_MPEGH/ISO/HEVC
Duration : 48 min 1 s
Bit rate : 8 545 kb/s
Width : 1 920 pixels
Height : 1 076 pixels
Display aspect ratio : 16:9
Frame rate mode : Constant
Frame rate : 25.000 FPS
Color space : YUV
Chroma subsampling : 4:2:0
Bit depth : 10 bits
Bits/(Pixel*Frame) : 0.165
Stream size : 2.87 GiB (98%)
Writing library : x265 3.1_RC1+1-10decf67c077:[Windows][MSVC 1921][64 bit] 10bit
Default : Yes
Forced : No

Audio
ID : 2
Format : AC-3
Format/Info : Audio Coding 3
Commercial name : Dolby Digital
Codec ID : A_AC3
Duration : 48 min 0 s
Bit rate mode : Constant
Bit rate : 192 kb/s
Channel(s) : 2 channels
Channel layout : L R
Sampling rate : 48.0 kHz
Frame rate : 31.250 FPS (1536 SPF)
Bit depth : 16 bits
Compression mode : Lossy
Stream size : 65.9 MiB (2%)
Service kind : Complete Main
Default : Yes
Forced : No
серии
1: В царстве слонов / Elephant Kingdom
2: Хищники джунглей / Tiger Jungles
3: Львы пустыни / Desert Lions
Скриншоты
SECRETS_OF_WILD_INDIA_hevc.torrent
 СЕРЕБРЯНАЯ РАЗДАЧА! СКАЧАННОЕ ЗАСЧИТЫВАЕТСЯ ТОЛЬКО НАПОЛОВИНУ! 
Вечный
Трекер: Зарегистрирован

magnet ссылка

 


Скачать .torrent

48 KB

Статус: проверено (by Snowden в 12-Июн-19 01:12)
Зарегистрирован: 11-Июн-19 21:23
Скачан: 9 раз
Размер: 9.5 GB | 
Поблагодарили:
Скачать National Geographic. Секреты дикой Индии / Secrets of Wild India (1-3 серии из 3) (Дункан Чард) [2012,Документальный, путешествие, исследование, природа, фауна,BDRip 1080p][HEVC][АРК-ТВ] торрент
 


Похожие раздачи

Текущее время: 24-Июн 19:22

Часовой пояс: GMT + 3



Вы не можете начинать темы
Вы не можете отвечать на сообщения
Вы не можете редактировать свои сообщения
Вы не можете удалять свои сообщения
Вы не можете голосовать в опросах
Вы не можете прикреплять файлы к сообщениям
Вы не можете скачивать файлы