Loading...
Error
 

Скачать торрент (Synthwave / Synthpop / Electronic) Mitch Murder - After Hours (2009) [FLAC, (tracks), lossless]

 
Автор Сообщение

Слава2312

post 11-Июл-19 12:47

pic


pic

Жанр: Synthwave / Synthpop / Electronic
Год издания данного носителя: 2009
Страна-производитель носителя: Sweden
Лейбл: Not On Label (Mitch Murder Self-released)
Каталоговый номер: none
Аудио кодек: FLAC
Тип рипа: tracks
Битрейт аудио: lossless [24/44,1]
Продолжительность: 00:26:18
Источник (релизер): pic
Треклист:
[3:41] 01. Mitch Murder - After Hours Run
[4:33] 02. Mitch Murder - Coup de Théâtre
[3:16] 03. Mitch Murder - Bertone's Theme
[3:34] 04. Mitch Murder - Steel Mill Rendevouz
[3:11] 05. Mitch Murder - Square City
[4:19] 06. Mitch Murder - Night Shift
[3:45] 07. Mitch Murder - Outta Space
MediaInfo

Код:



Общее
Полное имя                               : D:\Music\Mitch Murder - After Hours [2009] Flac\01 After Hours Run.flac
Формат                                   : FLAC
Формат/Информация                        : Free Lossless Audio Codec
Размер файла                             : 43,2 Мбайт
Продолжительность                        : 3 м. 40 с.
Режим общего битрейта                    : Переменный
Общий поток                              : 1642 Кбит/сек
Альбом                                   : After Hours
Альбом/Исполнитель                       : Mitch Murder
Часть                                    : 1
Часть/Всего                              : 1
Трек                                     : After Hours Run
Трек/Положение                           : 01
Трек/Всего                               : 07
Исполнитель                              : Mitch Murder
Жанр                                     : Synthpop
Дата записи                              : 2009
Обложка                                  : Yes
Тип обложки                              : Cover (front)
MIME-тип обложки                         : image/png
Примечание                               : https://mitchmurder.bandcamp.com/album/after-hours

Аудио
Формат                                   : FLAC
Формат/Информация                        : Free Lossless Audio Codec
Продолжительность                        : 3 м. 40 с.
Вид битрейта                             : Переменный
Битрейт                                  : 1624 Кбит/сек
Каналы                                   : 2 канала
Channel layout                           : L R
Частота                                  : 44,1 КГц
Битовая глубина                          : 24 бит
Метод сжатия                             : Без потерь
Размер потока                            : 42,7 Мбайт (99%)
Библиотека кодирования                   : libFLAC 1.3.0 (UTC 2013-05-26)

Общее
Полное имя                               : D:\Music\Mitch Murder - After Hours [2009] Flac\02 Coup de Théâtre.flac
Формат                                   : FLAC
Формат/Информация                        : Free Lossless Audio Codec
Размер файла                             : 51,6 Мбайт
Продолжительность                        : 4 м. 32 с.
Режим общего битрейта                    : Переменный
Общий поток                              : 1588 Кбит/сек
Альбом                                   : After Hours
Альбом/Исполнитель                       : Mitch Murder
Часть                                    : 1
Часть/Всего                              : 1
Трек                                     : Coup de Théâtre
Трек/Положение                           : 02
Трек/Всего                               : 07
Исполнитель                              : Mitch Murder
Жанр                                     : Synthpop
Дата записи                              : 2009
Обложка                                  : Yes
Тип обложки                              : Cover (front)
MIME-тип обложки                         : image/png
Примечание                               : https://mitchmurder.bandcamp.com/album/after-hours

Аудио
Формат                                   : FLAC
Формат/Информация                        : Free Lossless Audio Codec
Продолжительность                        : 4 м. 32 с.
Вид битрейта                             : Переменный
Битрейт                                  : 1573 Кбит/сек
Каналы                                   : 2 канала
Channel layout                           : L R
Частота                                  : 44,1 КГц
Битовая глубина                          : 24 бит
Метод сжатия                             : Без потерь
Размер потока                            : 51,1 Мбайт (99%)
Библиотека кодирования                   : libFLAC 1.3.0 (UTC 2013-05-26)

Общее
Полное имя                               : D:\Music\Mitch Murder - After Hours [2009] Flac\03 Bertone's Theme.flac
Формат                                   : FLAC
Формат/Информация                        : Free Lossless Audio Codec
Размер файла                             : 36,2 Мбайт
Продолжительность                        : 3 м. 15 с.
Режим общего битрейта                    : Переменный
Общий поток                              : 1552 Кбит/сек
Альбом                                   : After Hours
Альбом/Исполнитель                       : Mitch Murder
Часть                                    : 1
Часть/Всего                              : 1
Трек                                     : Bertone's Theme
Трек/Положение                           : 03
Трек/Всего                               : 07
Исполнитель                              : Mitch Murder
Жанр                                     : Synthpop
Дата записи                              : 2009
Обложка                                  : Yes
Тип обложки                              : Cover (front)
MIME-тип обложки                         : image/png
Примечание                               : https://mitchmurder.bandcamp.com/album/after-hours

Аудио
Формат                                   : FLAC
Формат/Информация                        : Free Lossless Audio Codec
Продолжительность                        : 3 м. 15 с.
Вид битрейта                             : Переменный
Битрейт                                  : 1531 Кбит/сек
Каналы                                   : 2 канала
Channel layout                           : L R
Частота                                  : 44,1 КГц
Битовая глубина                          : 24 бит
Метод сжатия                             : Без потерь
Размер потока                            : 35,7 Мбайт (99%)
Библиотека кодирования                   : libFLAC 1.3.0 (UTC 2013-05-26)

Общее
Полное имя                               : D:\Music\Mitch Murder - After Hours [2009] Flac\04 Steel Mill Rendevouz.flac
Формат                                   : FLAC
Формат/Информация                        : Free Lossless Audio Codec
Размер файла                             : 34,9 Мбайт
Продолжительность                        : 3 м. 34 с.
Режим общего битрейта                    : Переменный
Общий поток                              : 1368 Кбит/сек
Альбом                                   : After Hours
Альбом/Исполнитель                       : Mitch Murder
Часть                                    : 1
Часть/Всего                              : 1
Трек                                     : Steel Mill Rendevouz
Трек/Положение                           : 04
Трек/Всего                               : 07
Исполнитель                              : Mitch Murder
Жанр                                     : Synthpop
Дата записи                              : 2009
Обложка                                  : Yes
Тип обложки                              : Cover (front)
MIME-тип обложки                         : image/png
Примечание                               : https://mitchmurder.bandcamp.com/album/after-hours

Аудио
Формат                                   : FLAC
Формат/Информация                        : Free Lossless Audio Codec
Продолжительность                        : 3 м. 34 с.
Вид битрейта                             : Переменный
Битрейт                                  : 1349 Кбит/сек
Каналы                                   : 2 канала
Channel layout                           : L R
Частота                                  : 44,1 КГц
Битовая глубина                          : 24 бит
Метод сжатия                             : Без потерь
Размер потока                            : 34,4 Мбайт (99%)
Библиотека кодирования                   : libFLAC 1.3.0 (UTC 2013-05-26)

Общее
Полное имя                               : D:\Music\Mitch Murder - After Hours [2009] Flac\05 Square City.flac
Формат                                   : FLAC
Формат/Информация                        : Free Lossless Audio Codec
Размер файла                             : 35,9 Мбайт
Продолжительность                        : 3 м. 10 с.
Режим общего битрейта                    : Переменный
Общий поток                              : 1582 Кбит/сек
Альбом                                   : After Hours
Альбом/Исполнитель                       : Mitch Murder
Часть                                    : 1
Часть/Всего                              : 1
Трек                                     : Square City
Трек/Положение                           : 05
Трек/Всего                               : 07
Исполнитель                              : Mitch Murder
Жанр                                     : Synthpop
Дата записи                              : 2009
Обложка                                  : Yes
Тип обложки                              : Cover (front)
MIME-тип обложки                         : image/png
Примечание                               : https://mitchmurder.bandcamp.com/album/after-hours

Аудио
Формат                                   : FLAC
Формат/Информация                        : Free Lossless Audio Codec
Продолжительность                        : 3 м. 10 с.
Вид битрейта                             : Переменный
Битрейт                                  : 1560 Кбит/сек
Каналы                                   : 2 канала
Channel layout                           : L R
Частота                                  : 44,1 КГц
Битовая глубина                          : 24 бит
Метод сжатия                             : Без потерь
Размер потока                            : 35,4 Мбайт (99%)
Библиотека кодирования                   : libFLAC 1.3.0 (UTC 2013-05-26)

Общее
Полное имя                               : D:\Music\Mitch Murder - After Hours [2009] Flac\06 Night Shift.flac
Формат                                   : FLAC
Формат/Информация                        : Free Lossless Audio Codec
Размер файла                             : 52,4 Мбайт
Продолжительность                        : 4 м. 19 с.
Режим общего битрейта                    : Переменный
Общий поток                              : 1696 Кбит/сек
Альбом                                   : After Hours
Альбом/Исполнитель                       : Mitch Murder
Часть                                    : 1
Часть/Всего                              : 1
Трек                                     : Night Shift
Трек/Положение                           : 06
Трек/Всего                               : 07
Исполнитель                              : Mitch Murder
Жанр                                     : Synthpop
Дата записи                              : 2009
Обложка                                  : Yes
Тип обложки                              : Cover (front)
MIME-тип обложки                         : image/png
Примечание                               : https://mitchmurder.bandcamp.com/album/after-hours

Аудио
Формат                                   : FLAC
Формат/Информация                        : Free Lossless Audio Codec
Продолжительность                        : 4 м. 19 с.
Вид битрейта                             : Переменный
Битрейт                                  : 1680 Кбит/сек
Каналы                                   : 2 канала
Channel layout                           : L R
Частота                                  : 44,1 КГц
Битовая глубина                          : 24 бит
Метод сжатия                             : Без потерь
Размер потока                            : 51,9 Мбайт (99%)
Библиотека кодирования                   : libFLAC 1.3.0 (UTC 2013-05-26)

Общее
Полное имя                               : D:\Music\Mitch Murder - After Hours [2009] Flac\07 Outta Space.flac
Формат                                   : FLAC
Формат/Информация                        : Free Lossless Audio Codec
Размер файла                             : 45,0 Мбайт
Продолжительность                        : 3 м. 45 с.
Режим общего битрейта                    : Переменный
Общий поток                              : 1679 Кбит/сек
Альбом                                   : After Hours
Альбом/Исполнитель                       : Mitch Murder
Часть                                    : 1
Часть/Всего                              : 1
Трек                                     : Outta Space
Трек/Положение                           : 07
Трек/Всего                               : 07
Исполнитель                              : Mitch Murder
Жанр                                     : Synthpop
Дата записи                              : 2009
Обложка                                  : Yes
Тип обложки                              : Cover (front)
MIME-тип обложки                         : image/png
Примечание                               : https://mitchmurder.bandcamp.com/album/after-hours

Аудио
Формат                                   : FLAC
Формат/Информация                        : Free Lossless Audio Codec
Продолжительность                        : 3 м. 45 с.
Вид битрейта                             : Переменный
Битрейт                                  : 1661 Кбит/сек
Каналы                                   : 2 канала
Channel layout                           : L R
Частота                                  : 44,1 КГц
Битовая глубина                          : 24 бит
Метод сжатия                             : Без потерь
Размер потока                            : 44,6 Мбайт (99%)
Библиотека кодирования                   : libFLAC 1.3.0 (UTC 2013-05-26)

Общее
Полное имя                               : D:\Music\Mitch Murder - After Hours [2009] Flac\cover.png
Формат                                   : PNG
Формат/Информация                        : Portable Network Graphic
Размер файла                             : 492 Кбайт

Изображения
Формат                                   : PNG
Формат/Информация                        : Portable Network Graphic
Format_Compression                       : LZ77
Ширина                                   : 1000 пикселей
Высота                                   : 1000 пикселей
Битовая глубина                          : 32 бит
Метод сжатия                             : Без потерь
Размер потока                            : 492 Кбайт (100%)

Замер динамического диапазона (DR)

Код:



foobar2000 1.4.1 / Замер динамического диапазона (DR) 1.1.1
Дата отчёта:    2019-07-11 13:43:08

--------------------------------------------------------------------------------
Анализ:   Mitch Murder / After Hours
--------------------------------------------------------------------------------

DR         Пики         RMS           Продолжительность трека
--------------------------------------------------------------------------------
DR7       -0.01 дБ    -8.63 дБ      3:41 01-After Hours Run
DR8       -0.01 дБ    -9.04 дБ      4:33 02-Coup de Théâtre
DR10      -0.01 дБ   -10.90 дБ      3:16 03-Bertone's Theme
DR10      -0.01 дБ   -11.29 дБ      3:34 04-Steel Mill Rendevouz
DR9       -0.01 дБ    -9.77 дБ      3:11 05-Square City
DR6       -0.01 дБ    -7.13 дБ      4:19 06-Night Shift
DR7       -0.18 дБ    -8.12 дБ      3:45 07-Outta Space
--------------------------------------------------------------------------------

Количество треков:  7
Реальные значения DR:  DR8

Частота:      44100 Гц
Каналов:      2
Разрядность:     24
Битрейт:      1661 кбит/с
Кодек:      FLAC
================================================================================

Спектрограммы

pic
Mitch Murder - After Hours (2009) Flac.torrent
Трекер: Зарегистрирован

magnet ссылка

 


Скачать .torrent

12 KB

Статус: проверено (by Snowden в 11-Июл-19 12:55)
Зарегистрирован: 11-Июл-19 12:47
Скачан: 50 раз
Размер: 300 MB | 
Поблагодарили:
Скачать (Synthwave / Synthpop / Electronic) Mitch Murder - After Hours (2009) [FLAC, (tracks), lossless] торрент
 


Похожие раздачи

Текущее время: 15-Дек 03:39

Часовой пояс: GMT + 3



Вы не можете начинать темы
Вы не можете отвечать на сообщения
Вы не можете редактировать свои сообщения
Вы не можете удалять свои сообщения
Вы не можете голосовать в опросах
Вы не можете прикреплять файлы к сообщениям
Вы не можете скачивать файлы