Loading...
Error
 
Мини-чат
 

Скачать торрент (Disco, Funk, Soul) VA - Disco Inferno: Ultimate Disco Anthems (5CD Box Set) - 2019 [FLAC, tracks +.cue, lossless]

 
Автор Сообщение

trygg

post 19-Сен-19 14:07


VA - Disco Inferno: Ultimate Disco Anthems (5CD Box Set)


pic
Год издания: 2019
Страна: pic
Жанр: Disco, Funk, Soul
Продолжительность: 06:33:16
Лейбл издания: Ultimate Collection
Страна-выпуска диска: EU pic
Номер по каталогу: ULTIM5CDW06
Формат: FLAC
Битрейт аудио: Lossless
Тип рипа: tracks +.cue
Наличие сканов в содержимом раздачи: да

pic
Трэклист
pic
CD 1 | 01:19:19
pic
01. Chic - Good Times (3:35)
02. The Trammps - Disco Inferno (3:28)
03. Rose Royce - Is It Love You're After (3:47)
04. Sister Sledge - Lost In Music (3:21)
05. Gwen McCrae - Keep The Fire Burning (3:43)
06. Slave - Just A Touch Of Love (6:23)
07. Stacy Lattisaw - Jump To The Beat (5:07)
08. Rufus & Chaka Khan - Ain't Nobody (4:24)
09. Shalamar - A Night To Remember (3:25)
10. Chic - Everybody Dance (3:26)
11. Candi Staton - Young Hearts Run Free (3:42)
12. Stargard - Wear It Out (3:36)
13. Phreek - Weekend (3:33)
14. Janice McClain - Smack Dab In The Middle (4:08)
15. Goody Goody - It Looks Like Love (3:15)
16. Narada Michael Walden - Tonight I'm Alright (5:15)
17. Nu Shooz - I Can't Wait (3:36)
18. Hot Chocolate - Emotion Explosion (3:50)
19. Steve Arrington - Feel So Real (4:07)
20. Maria Muldaur - Midnight At The Oasis (3:38)
CD 2 | 01:18:49
pic
01. Sister Sledge - He's The Greatest Dancer (3:32)
02. George Benson - Give Me The Night (3:36)
03. Change - The Glow Of Love (6:11)
04. Midnight Star - Midas Touch (3:53)
05. Chic - Le Freak (3:32)
06. KC & The Sunshine Band - (Shake Shake Shake) Shake Your Booty (2:59)
07. Chaka Khan - I'm Every Woman (3:16)
08. Narada Michael Walden - I Shoulda Loved Ya (3:52)
09. Carl Douglas - Dance The Kung Fu (3:02)
10. Aurra - Make Up Your Mind (3:03)
11. Sheila B. Devotion - Spacer (3:39)
12. Change - Paradise (3:53)
13. Gino Soccio - Dancer (3:25)
14. Hot Chocolate - You Sexy Thing (4:01)
15. Slave - Watching You (4:38)
16. Norma Jean Wright - Sorcerer (4:52)
17. Deodato - Whistle Bump (4:24)
18. Richie Havens - Going Back To My Roots (4:55)
19. Frankie Valli - Native New Yorker (5:15)
20. Tony Wilson - I Like Your Style (2:53)
CD 3 | 01:17:43
pic
01. Patrice Rushen - Forget Me Nots (4:40)
02. Sister Sledge - We Are Family (3:32)
03. First Choice - Let No Man Put Asunder (4:18)
04. George Benson - Never Give Up On A Good Thing (4:01)
05. Inner Life - Make It Last Forever (3:33)
06. Amii Stewart - Knock On Wood (3:35)
07. Brenda Taylor - You Can't Have Your Cake And Eat It Too (2:54)
08. Carol Williams - Love Is You (3:38)
09. Inner Life - Ain't No Mountain High Enough (3:20)
10. Kleeer - Tonight's The Night (Good Time) (6:06)
11. Crown Heights Affair - You Gave Me Love (3:29)
12. The Salsoul Orchestra - Chicago Bus Stop (Ooh I Love It) (4:38)
13. Undisputed Truth - You + Me = Love (3:29)
14. Candi Staton - Suspicious Minds (3:48)
15. Double Exposure - My Love Is Free (3:47)
16. First Choice - Love Thang (3:41)
17. Donna McGhee - I'm A Love Bug (4:24)
18. Candido - Dancin' & Prancin' (3:31)
19. Karen Young - Hot Shot (4:14)
20. Crown Heights Affair - Dreaming A Dream (3:04)
CD 4 | 01:19:45
pic
01. Shalamar - I Can Make You Feel Good (4:09)
02. Patrice Rushen - Haven't You Heard (6:37)
03. Loleatta Holloway - Love Sensation (3:41)
04. Raw Silk - Do It To The Music (4:05)
05. The Salsoul Orchestra - Runaway (4:41)
06. Kelly Marie - Feels Like I'm In Love (3:11)
07. Positive Force - We Got The Funk (3:12)
08. The Real Thing - Can You Feel The Force (3:59)
09. Shirley & Company - Shame Shame Shame (3:44)
10. Norma Jean Wright - Saturday (6:01)
11. Candi Staton - Nights On Broadway (3:23)
12. Love Committee - Just As Long As I Got You (3:41)
13. Shirley Lites - Heat You Up (Melt You Down) (3:24)
14. Peech Boys - Don't Make Me Wait (3:37)
15. Marshall Hain - Dancing In The City (3:43)
16. Carol Williams - More (3:28)
17. Skyy - Here's To You (3:41)
18. Positive Force - Love Injection (3:33)
19. Sylvia Robinson - Lay It On Me (3:51)
20. The Spinners - Could It Be I'm Falling In Love (4:05)
CD 5 | 01:17:39
pic
01. The Whispers - And The Beat Goes On (3:20)
02. Shalamar - Take That To The Bank (3:16)
03. Coffee - Casanova (3:21)
04. Kleeer - Keep Your Body Workin' (5:18)
05. Carrie Lucas - Dance With You (3:24)
06. Rhetta Young - Sending Out An SOS (3:08)
07. Aurra - Send Your Love (4:27)
08. Moment Of Truth - You Got Me Hummin' (4:02)
09. Bebu Silvetti - Spring Rain (2:59)
10. Dynasty - I Don't Want To Be A Freak (But I Can't Help Myself) (3:13)
11. Lakeside - Fantastic Voyage (3:59)
12. Osibisa - Dance The Body Music (3:40)
13. Taana Gardner - Heartbeat (4:16)
14. Norma Jean Wright - I Like Love (5:39)
15. Narada Michael Walden - Lovin' You Madly (5:16)
16. Sheila & B. Devotion - You Light My Fire (4:16)
17. Bettye Lavette - Doin' The Best That I Can (3:13)
18. Sybil Thomas - Rescue Me (3:25)
19. Moment Of Truth - Lovin' You Is Killing Me (4:13)
20. Bebu Silvetti - Voyage Of No Return (3:14)

pic
Лог создания рипа
CD 1

Код:

Exact Audio Copy V1.3 from 2. September 2016

EAC extraction logfile from 13. August 2019, 21:33

Various / Disco Inferno - The Ultimate Collection - CD1

Used drive  : ATAPI   iHAS124   Y   Adapter: 1  ID: 0

Read mode               : Secure
Utilize accurate stream : Yes
Defeat audio cache      : No
Make use of C2 pointers : Yes

Read offset correction                      : 48
Overread into Lead-In and Lead-Out          : No
Fill up missing offset samples with silence : Yes
Delete leading and trailing silent blocks   : No
Null samples used in CRC calculations       : Yes
Used interface                              : Native Win32 interface for Win NT & 2000
Gap handling                                : Not detected, thus appended to previous track

Used output format              : User Defined Encoder
Selected bitrate                : 896 kBit/s
Quality                         : High
Add ID3 tag                     : No
Command line compressor         : C:\Program Files (x86)\Exact Audio Copy\FLAC\FLAC.EXE
Additional command line options : -6 -V -T "ARTIST=%artist%" -T "TITLE=%title%" -T "ALBUM=%albumtitle%" -T "DATE=%year%" -T "TRACKNUMBER=%tracknr%" -T "GENRE=%genre%" -T "COMMENT=%comment%" -T "BAND=%albuminterpret%" -T "ALBUMARTIST=%albuminterpret%" -T "COMPOSER=%composer%" %haslyrics%--tag-from-file=LYRICS="%lyricsfile%"%haslyrics% -T "DISCNUMBER=%cdnumber%" -T "TOTALDISCS=%totalcds%" -T "TOTALTRACKS=%numtracks%" %hascover%--picture="%coverfile%"%hascover% %source% -o %dest%

TOC of the extracted CD

     Track |   Start  |  Length  | Start sector | End sector
    ---------------------------------------------------------
        1  |  0:00.00 |  3:35.26 |         0    |    16150
        2  |  3:35.26 |  3:27.52 |     16151    |    31727
        3  |  7:03.03 |  3:47.10 |     31728    |    48762
        4  | 10:50.13 |  3:20.68 |     48763    |    63830
        5  | 14:11.06 |  3:42.62 |     63831    |    80542
        6  | 17:53.68 |  6:23.05 |     80543    |   109272
        7  | 24:16.73 |  5:07.19 |    109273    |   132316
        8  | 29:24.17 |  4:24.06 |    132317    |   152122
        9  | 33:48.23 |  3:24.49 |    152123    |   167471
       10  | 37:12.72 |  3:25.40 |    167472    |   182886
       11  | 40:38.37 |  3:41.72 |    182887    |   199533
       12  | 44:20.34 |  3:36.02 |    199534    |   215735
       13  | 47:56.36 |  3:33.32 |    215736    |   231742
       14  | 51:29.68 |  4:08.31 |    231743    |   250373
       15  | 55:38.24 |  3:14.39 |    250374    |   264962
       16  | 58:52.63 |  5:15.20 |    264963    |   288607
       17  | 64:08.08 |  3:35.45 |    288608    |   304777
       18  | 67:43.53 |  3:49.56 |    304778    |   322008
       19  | 71:33.34 |  4:07.34 |    322009    |   340567
       20  | 75:40.68 |  3:37.65 |    340568    |   356907

Track  1

     Filename A:\PsPBuRnOuT's MUSIC\SORTED BY YEAR\2000 PLUS\DISCO INFERNO - THE ULTIMATE COLLECTION\DISCO INFERNO - CD1\01.Chic - Good Times.wav

     Peak level 100.0 %
     Extraction speed 14.4 X
     Track quality 100.0 %
     Copy CRC D43DEE51
     Track not present in AccurateRip database
     Copy OK

Track  2

     Filename A:\PsPBuRnOuT's MUSIC\SORTED BY YEAR\2000 PLUS\DISCO INFERNO - THE ULTIMATE COLLECTION\DISCO INFERNO - CD1\02.The Trammps - Disco Inferno.wav

     Peak level 88.9 %
     Extraction speed 20.3 X
     Track quality 100.0 %
     Copy CRC DA2D4905
     Track not present in AccurateRip database
     Copy OK

Track  3

     Filename A:\PsPBuRnOuT's MUSIC\SORTED BY YEAR\2000 PLUS\DISCO INFERNO - THE ULTIMATE COLLECTION\DISCO INFERNO - CD1\03.Rose Royce - Is It Love You're After.wav

     Peak level 98.8 %
     Extraction speed 21.9 X
     Track quality 100.0 %
     Copy CRC D580AC98
     Track not present in AccurateRip database
     Copy OK

Track  4

     Filename A:\PsPBuRnOuT's MUSIC\SORTED BY YEAR\2000 PLUS\DISCO INFERNO - THE ULTIMATE COLLECTION\DISCO INFERNO - CD1\04.Sister Sledge - Lost In Music.wav

     Peak level 100.0 %
     Extraction speed 24.3 X
     Track quality 100.0 %
     Copy CRC F81322FD
     Track not present in AccurateRip database
     Copy OK

Track  5

     Filename A:\PsPBuRnOuT's MUSIC\SORTED BY YEAR\2000 PLUS\DISCO INFERNO - THE ULTIMATE COLLECTION\DISCO INFERNO - CD1\05.Gwen McCrae - Keep The Fire Burning.wav

     Peak level 93.0 %
     Extraction speed 25.5 X
     Track quality 100.0 %
     Copy CRC E0A29387
     Track not present in AccurateRip database
     Copy OK

Track  6

     Filename A:\PsPBuRnOuT's MUSIC\SORTED BY YEAR\2000 PLUS\DISCO INFERNO - THE ULTIMATE COLLECTION\DISCO INFERNO - CD1\06.Slave - Just A Touch Of Love.wav

     Peak level 100.0 %
     Extraction speed 27.0 X
     Track quality 100.0 %
     Copy CRC 17FBD64B
     Track not present in AccurateRip database
     Copy OK

Track  7

     Filename A:\PsPBuRnOuT's MUSIC\SORTED BY YEAR\2000 PLUS\DISCO INFERNO - THE ULTIMATE COLLECTION\DISCO INFERNO - CD1\07.Stacy Lattisaw - Jump To The Beat.wav

     Peak level 93.3 %
     Extraction speed 28.9 X
     Track quality 100.0 %
     Copy CRC 96586549
     Track not present in AccurateRip database
     Copy OK

Track  8

     Filename A:\PsPBuRnOuT's MUSIC\SORTED BY YEAR\2000 PLUS\DISCO INFERNO - THE ULTIMATE COLLECTION\DISCO INFERNO - CD1\08.Rufus & Chaka Khan - Ain't Nobody.wav

     Peak level 93.3 %
     Extraction speed 29.2 X
     Track quality 100.0 %
     Copy CRC D1B08AB0
     Track not present in AccurateRip database
     Copy OK

Track  9

     Filename A:\PsPBuRnOuT's MUSIC\SORTED BY YEAR\2000 PLUS\DISCO INFERNO - THE ULTIMATE COLLECTION\DISCO INFERNO - CD1\09.Shalamar - A Night To Remember.wav

     Peak level 86.4 %
     Extraction speed 31.7 X
     Track quality 100.0 %
     Copy CRC 29779E71
     Track not present in AccurateRip database
     Copy OK

Track 10

     Filename A:\PsPBuRnOuT's MUSIC\SORTED BY YEAR\2000 PLUS\DISCO INFERNO - THE ULTIMATE COLLECTION\DISCO INFERNO - CD1\10.Chic - Everybody Dance.wav

     Peak level 100.0 %
     Extraction speed 25.8 X
     Track quality 99.8 %
     Copy CRC 54510507
     Track not present in AccurateRip database
     Copy OK

Track 11

     Filename A:\PsPBuRnOuT's MUSIC\SORTED BY YEAR\2000 PLUS\DISCO INFERNO - THE ULTIMATE COLLECTION\DISCO INFERNO - CD1\11.Candi Staton - Young Hearts Run Free.wav

     Peak level 95.5 %
     Extraction speed 25.2 X
     Track quality 100.0 %
     Copy CRC ADCC9960
     Track not present in AccurateRip database
     Copy OK

Track 12

     Filename A:\PsPBuRnOuT's MUSIC\SORTED BY YEAR\2000 PLUS\DISCO INFERNO - THE ULTIMATE COLLECTION\DISCO INFERNO - CD1\12.Stargard - Wear It Out.wav

     Peak level 98.8 %
     Extraction speed 32.5 X
     Track quality 100.0 %
     Copy CRC 592BB500
     Track not present in AccurateRip database
     Copy OK

Track 13

     Filename A:\PsPBuRnOuT's MUSIC\SORTED BY YEAR\2000 PLUS\DISCO INFERNO - THE ULTIMATE COLLECTION\DISCO INFERNO - CD1\13.Phreek - Weekend.wav

     Peak level 93.3 %
     Extraction speed 33.6 X
     Track quality 100.0 %
     Copy CRC 270DB3DA
     Track not present in AccurateRip database
     Copy OK

Track 14

     Filename A:\PsPBuRnOuT's MUSIC\SORTED BY YEAR\2000 PLUS\DISCO INFERNO - THE ULTIMATE COLLECTION\DISCO INFERNO - CD1\14.Janice McClain - Smack Dab In The Middle.wav

     Peak level 100.0 %
     Extraction speed 34.7 X
     Track quality 100.0 %
     Copy CRC 3F3CEA0A
     Track not present in AccurateRip database
     Copy OK

Track 15

     Filename A:\PsPBuRnOuT's MUSIC\SORTED BY YEAR\2000 PLUS\DISCO INFERNO - THE ULTIMATE COLLECTION\DISCO INFERNO - CD1\15.Goody Goody - It Looks Like Love.wav

     Peak level 96.0 %
     Extraction speed 37.4 X
     Track quality 100.0 %
     Copy CRC 17E40B86
     Track not present in AccurateRip database
     Copy OK

Track 16

     Filename A:\PsPBuRnOuT's MUSIC\SORTED BY YEAR\2000 PLUS\DISCO INFERNO - THE ULTIMATE COLLECTION\DISCO INFERNO - CD1\16.Narada Michael Walden - Tonight I'm Alright.wav

     Peak level 100.0 %
     Extraction speed 38.1 X
     Track quality 100.0 %
     Copy CRC 65DCEB7A
     Track not present in AccurateRip database
     Copy OK

Track 17

     Filename A:\PsPBuRnOuT's MUSIC\SORTED BY YEAR\2000 PLUS\DISCO INFERNO - THE ULTIMATE COLLECTION\DISCO INFERNO - CD1\17.Nu Shooz - I Can't Wait.wav

     Peak level 78.5 %
     Extraction speed 37.2 X
     Track quality 100.0 %
     Copy CRC 44967468
     Track not present in AccurateRip database
     Copy OK

Track 18

     Filename A:\PsPBuRnOuT's MUSIC\SORTED BY YEAR\2000 PLUS\DISCO INFERNO - THE ULTIMATE COLLECTION\DISCO INFERNO - CD1\18.Hot Chocolate - Emotion Explosion.wav

     Peak level 100.0 %
     Extraction speed 31.0 X
     Track quality 99.9 %
     Copy CRC 1074E73B
     Track not present in AccurateRip database
     Copy OK

Track 19

     Filename A:\PsPBuRnOuT's MUSIC\SORTED BY YEAR\2000 PLUS\DISCO INFERNO - THE ULTIMATE COLLECTION\DISCO INFERNO - CD1\19.Steve Arrington - Feel So Real.wav

     Peak level 98.8 %
     Extraction speed 29.8 X
     Track quality 100.0 %
     Copy CRC 2FB9001E
     Track not present in AccurateRip database
     Copy OK

Track 20

     Filename A:\PsPBuRnOuT's MUSIC\SORTED BY YEAR\2000 PLUS\DISCO INFERNO - THE ULTIMATE COLLECTION\DISCO INFERNO - CD1\20.Maria Muldaur - Midnight At The Oasis.wav

     Peak level 94.4 %
     Extraction speed 39.6 X
     Track quality 100.0 %
     Copy CRC 785BC823
     Track not present in AccurateRip database
     Copy OK

None of the tracks are present in the AccurateRip database

No errors occurred

End of status report
CD 2

Код:

Exact Audio Copy V1.3 from 2. September 2016

EAC extraction logfile from 13. August 2019, 21:54

Various / Disco Inferno - The Ultimate Collection - CD2

Used drive  : ATAPI   iHAS124   Y   Adapter: 1  ID: 0

Read mode               : Secure
Utilize accurate stream : Yes
Defeat audio cache      : No
Make use of C2 pointers : Yes

Read offset correction                      : 48
Overread into Lead-In and Lead-Out          : No
Fill up missing offset samples with silence : Yes
Delete leading and trailing silent blocks   : No
Null samples used in CRC calculations       : Yes
Used interface                              : Native Win32 interface for Win NT & 2000
Gap handling                                : Not detected, thus appended to previous track

Used output format              : User Defined Encoder
Selected bitrate                : 896 kBit/s
Quality                         : High
Add ID3 tag                     : No
Command line compressor         : C:\Program Files (x86)\Exact Audio Copy\FLAC\FLAC.EXE
Additional command line options : -6 -V -T "ARTIST=%artist%" -T "TITLE=%title%" -T "ALBUM=%albumtitle%" -T "DATE=%year%" -T "TRACKNUMBER=%tracknr%" -T "GENRE=%genre%" -T "COMMENT=%comment%" -T "BAND=%albuminterpret%" -T "ALBUMARTIST=%albuminterpret%" -T "COMPOSER=%composer%" %haslyrics%--tag-from-file=LYRICS="%lyricsfile%"%haslyrics% -T "DISCNUMBER=%cdnumber%" -T "TOTALDISCS=%totalcds%" -T "TOTALTRACKS=%numtracks%" %hascover%--picture="%coverfile%"%hascover% %source% -o %dest%

TOC of the extracted CD

     Track |   Start  |  Length  | Start sector | End sector
    ---------------------------------------------------------
        1  |  0:00.00 |  3:31.38 |         0    |    15862
        2  |  3:31.38 |  3:35.51 |     15863    |    32038
        3  |  7:07.14 |  6:10.67 |     32039    |    59855
        4  | 13:18.06 |  3:53.04 |     59856    |    77334
        5  | 17:11.10 |  3:31.72 |     77335    |    93231
        6  | 20:43.07 |  2:58.44 |     93232    |   106625
        7  | 23:41.51 |  3:16.17 |    106626    |   121342
        8  | 26:57.68 |  3:51.61 |    121343    |   138728
        9  | 30:49.54 |  3:02.16 |    138729    |   152394
       10  | 33:51.70 |  3:02.53 |    152395    |   166097
       11  | 36:54.48 |  3:38.67 |    166098    |   182514
       12  | 40:33.40 |  3:52.49 |    182515    |   199963
       13  | 44:26.14 |  3:24.47 |    199964    |   215310
       14  | 47:50.61 |  4:01.10 |    215311    |   233395
       15  | 51:51.71 |  4:38.17 |    233396    |   254262
       16  | 56:30.13 |  4:51.73 |    254263    |   276160
       17  | 61:22.11 |  4:24.03 |    276161    |   295963
       18  | 65:46.14 |  4:54.67 |    295964    |   318080
       19  | 70:41.06 |  5:14.66 |    318081    |   341696
       20  | 75:55.72 |  2:53.08 |    341697    |   354679

Track  1

     Filename A:\PsPBuRnOuT's MUSIC\SORTED BY YEAR\2000 PLUS\DISCO INFERNO - THE ULTIMATE COLLECTION\DISCO INFERNO - CD2\01.Sister Sledge - He's The Greatest Dancer.wav

     Peak level 100.0 %
     Extraction speed 14.2 X
     Track quality 100.0 %
     Copy CRC B0CFD83C
     Track not present in AccurateRip database
     Copy OK

Track  2

     Filename A:\PsPBuRnOuT's MUSIC\SORTED BY YEAR\2000 PLUS\DISCO INFERNO - THE ULTIMATE COLLECTION\DISCO INFERNO - CD2\02.George Benson - Give Me The Night.wav

     Peak level 100.0 %
     Extraction speed 20.0 X
     Track quality 100.0 %
     Copy CRC 7277160E
     Track not present in AccurateRip database
     Copy OK

Track  3

     Filename A:\PsPBuRnOuT's MUSIC\SORTED BY YEAR\2000 PLUS\DISCO INFERNO - THE ULTIMATE COLLECTION\DISCO INFERNO - CD2\03.Change - The Glow Of Love.wav

     Peak level 100.0 %
     Extraction speed 20.2 X
     Track quality 99.9 %
     Copy CRC 4F71D9C6
     Track not present in AccurateRip database
     Copy OK

Track  4

     Filename A:\PsPBuRnOuT's MUSIC\SORTED BY YEAR\2000 PLUS\DISCO INFERNO - THE ULTIMATE COLLECTION\DISCO INFERNO - CD2\04.Midnight Star - Midas Touch.wav

     Peak level 100.0 %
     Extraction speed 20.9 X
     Track quality 100.0 %
     Copy CRC F8F73ACA
     Track not present in AccurateRip database
     Copy OK

Track  5

     Filename A:\PsPBuRnOuT's MUSIC\SORTED BY YEAR\2000 PLUS\DISCO INFERNO - THE ULTIMATE COLLECTION\DISCO INFERNO - CD2\05.Chic - Le Freak.wav

     Peak level 99.7 %
     Extraction speed 26.3 X
     Track quality 100.0 %
     Copy CRC B7D61549
     Track not present in AccurateRip database
     Copy OK

Track  6

     Filename A:\PsPBuRnOuT's MUSIC\SORTED BY YEAR\2000 PLUS\DISCO INFERNO - THE ULTIMATE COLLECTION\DISCO INFERNO - CD2\06.KC & The Sunshine Band - (Shake Shake Shake) Shake Your Booty.wav

     Peak level 88.4 %
     Extraction speed 27.4 X
     Track quality 100.0 %
     Copy CRC AAE02FE2
     Track not present in AccurateRip database
     Copy OK

Track  7

     Filename A:\PsPBuRnOuT's MUSIC\SORTED BY YEAR\2000 PLUS\DISCO INFERNO - THE ULTIMATE COLLECTION\DISCO INFERNO - CD2\07.Chaka Khan - I'm Every Woman.wav

     Peak level 82.7 %
     Extraction speed 16.0 X
     Track quality 99.8 %
     Copy CRC 91052574
     Track not present in AccurateRip database
     Copy OK

Track  8

     Filename A:\PsPBuRnOuT's MUSIC\SORTED BY YEAR\2000 PLUS\DISCO INFERNO - THE ULTIMATE COLLECTION\DISCO INFERNO - CD2\08.Narada Michael Walden - I Shoulda Loved Ya.wav

     Peak level 93.3 %
     Extraction speed 29.5 X
     Track quality 100.0 %
     Copy CRC 64CBF78D
     Track not present in AccurateRip database
     Copy OK

Track  9

     Filename A:\PsPBuRnOuT's MUSIC\SORTED BY YEAR\2000 PLUS\DISCO INFERNO - THE ULTIMATE COLLECTION\DISCO INFERNO - CD2\09.Carl Douglas - Dance The Kung Fu.wav

     Peak level 100.0 %
     Extraction speed 28.8 X
     Track quality 100.0 %
     Copy CRC B4517AFE
     Track not present in AccurateRip database
     Copy OK

Track 10

     Filename A:\PsPBuRnOuT's MUSIC\SORTED BY YEAR\2000 PLUS\DISCO INFERNO - THE ULTIMATE COLLECTION\DISCO INFERNO - CD2\10.Aurra - Make Up Your Mind.wav

     Peak level 100.0 %
     Extraction speed 31.6 X
     Track quality 100.0 %
     Copy CRC 5C04D03C
     Track not present in AccurateRip database
     Copy OK

Track 11

     Filename A:\PsPBuRnOuT's MUSIC\SORTED BY YEAR\2000 PLUS\DISCO INFERNO - THE ULTIMATE COLLECTION\DISCO INFERNO - CD2\11.Sheila B. Devotion - Spacer.wav

     Peak level 96.2 %
     Extraction speed 26.0 X
     Track quality 99.9 %
     Copy CRC FAA10EBE
     Track not present in AccurateRip database
     Copy OK

Track 12

     Filename A:\PsPBuRnOuT's MUSIC\SORTED BY YEAR\2000 PLUS\DISCO INFERNO - THE ULTIMATE COLLECTION\DISCO INFERNO - CD2\12.Change - Paradise.wav

     Peak level 84.1 %
     Extraction speed 26.6 X
     Track quality 100.0 %
     Copy CRC 6B618263
     Track not present in AccurateRip database
     Copy OK

Track 13

     Filename A:\PsPBuRnOuT's MUSIC\SORTED BY YEAR\2000 PLUS\DISCO INFERNO - THE ULTIMATE COLLECTION\DISCO INFERNO - CD2\13.Gino Soccio - Dancer.wav

     Peak level 88.1 %
     Extraction speed 34.3 X
     Track quality 100.0 %
     Copy CRC 6F6DA809
     Track not present in AccurateRip database
     Copy OK

Track 14

     Filename A:\PsPBuRnOuT's MUSIC\SORTED BY YEAR\2000 PLUS\DISCO INFERNO - THE ULTIMATE COLLECTION\DISCO INFERNO - CD2\14.Hot Chocolate - You Sexy Thing.wav

     Peak level 87.1 %
     Extraction speed 33.7 X
     Track quality 100.0 %
     Copy CRC 07F86F7B
     Track not present in AccurateRip database
     Copy OK

Track 15

     Filename A:\PsPBuRnOuT's MUSIC\SORTED BY YEAR\2000 PLUS\DISCO INFERNO - THE ULTIMATE COLLECTION\DISCO INFERNO - CD2\15.Slave - Watching You.wav

     Peak level 100.0 %
     Extraction speed 36.3 X
     Track quality 100.0 %
     Copy CRC F1232620
     Track not present in AccurateRip database
     Copy OK

Track 16

     Filename A:\PsPBuRnOuT's MUSIC\SORTED BY YEAR\2000 PLUS\DISCO INFERNO - THE ULTIMATE COLLECTION\DISCO INFERNO - CD2\16.Norma Jean Wright - Sorcerer.wav

     Peak level 100.0 %
     Extraction speed 37.4 X
     Track quality 100.0 %
     Copy CRC 82E4BE71
     Track not present in AccurateRip database
     Copy OK

Track 17

     Filename A:\PsPBuRnOuT's MUSIC\SORTED BY YEAR\2000 PLUS\DISCO INFERNO - THE ULTIMATE COLLECTION\DISCO INFERNO - CD2\17.Deodato - Whistle Bump.wav

     Peak level 100.0 %
     Extraction speed 36.5 X
     Track quality 100.0 %
     Copy CRC 23EA00D7
     Track not present in AccurateRip database
     Copy OK

Track 18

     Filename A:\PsPBuRnOuT's MUSIC\SORTED BY YEAR\2000 PLUS\DISCO INFERNO - THE ULTIMATE COLLECTION\DISCO INFERNO - CD2\18.Richie Havens - Going Back To My Roots.wav

     Peak level 100.0 %
     Extraction speed 38.9 X
     Track quality 100.0 %
     Copy CRC 68DE9529
     Track not present in AccurateRip database
     Copy OK

Track 19

     Filename A:\PsPBuRnOuT's MUSIC\SORTED BY YEAR\2000 PLUS\DISCO INFERNO - THE ULTIMATE COLLECTION\DISCO INFERNO - CD2\19.Frankie Valli - Native New Yorker.wav

     Peak level 94.4 %
     Extraction speed 40.7 X
     Track quality 100.0 %
     Copy CRC F9D98216
     Track not present in AccurateRip database
     Copy OK

Track 20

     Filename A:\PsPBuRnOuT's MUSIC\SORTED BY YEAR\2000 PLUS\DISCO INFERNO - THE ULTIMATE COLLECTION\DISCO INFERNO - CD2\20.Tony Wilson - I Like Your Style.wav

     Peak level 100.0 %
     Extraction speed 19.6 X
     Track quality 99.8 %
     Copy CRC 9D7F258B
     Track not present in AccurateRip database
     Copy OK

None of the tracks are present in the AccurateRip database

No errors occurred

End of status report
CD 3

Код:

Exact Audio Copy V1.3 from 2. September 2016

EAC extraction logfile from 13. August 2019, 22:27

Various / Disco Inferno - The Ultimate Collection - CD3

Used drive  : ATAPI   iHAS124   Y   Adapter: 1  ID: 0

Read mode               : Secure
Utilize accurate stream : Yes
Defeat audio cache      : No
Make use of C2 pointers : Yes

Read offset correction                      : 48
Overread into Lead-In and Lead-Out          : No
Fill up missing offset samples with silence : Yes
Delete leading and trailing silent blocks   : No
Null samples used in CRC calculations       : Yes
Used interface                              : Native Win32 interface for Win NT & 2000
Gap handling                                : Not detected, thus appended to previous track

Used output format              : User Defined Encoder
Selected bitrate                : 896 kBit/s
Quality                         : High
Add ID3 tag                     : No
Command line compressor         : C:\Program Files (x86)\Exact Audio Copy\FLAC\FLAC.EXE
Additional command line options : -6 -V -T "ARTIST=%artist%" -T "TITLE=%title%" -T "ALBUM=%albumtitle%" -T "DATE=%year%" -T "TRACKNUMBER=%tracknr%" -T "GENRE=%genre%" -T "COMMENT=%comment%" -T "BAND=%albuminterpret%" -T "ALBUMARTIST=%albuminterpret%" -T "COMPOSER=%composer%" %haslyrics%--tag-from-file=LYRICS="%lyricsfile%"%haslyrics% -T "DISCNUMBER=%cdnumber%" -T "TOTALDISCS=%totalcds%" -T "TOTALTRACKS=%numtracks%" %hascover%--picture="%coverfile%"%hascover% %source% -o %dest%

TOC of the extracted CD

     Track |   Start  |  Length  | Start sector | End sector
    ---------------------------------------------------------
        1  |  0:00.00 |  4:39.55 |         0    |    20979
        2  |  4:39.55 |  3:32.09 |     20980    |    36888
        3  |  8:11.64 |  4:17.49 |     36889    |    56212
        4  | 12:29.38 |  4:01.00 |     56213    |    74287
        5  | 16:30.38 |  3:33.31 |     74288    |    90293
        6  | 20:03.69 |  3:35.27 |     90294    |   106445
        7  | 23:39.21 |  2:54.11 |    106446    |   119506
        8  | 26:33.32 |  3:37.68 |    119507    |   135849
        9  | 30:11.25 |  3:19.73 |    135850    |   150847
       10  | 33:31.23 |  6:06.34 |    150848    |   178331
       11  | 39:37.57 |  3:29.36 |    178332    |   194042
       12  | 43:07.18 |  4:38.32 |    194043    |   214924
       13  | 47:45.50 |  3:29.23 |    214925    |   230622
       14  | 51:14.73 |  3:47.40 |    230623    |   247687
       15  | 55:02.38 |  3:46.54 |    247688    |   264691
       16  | 58:49.17 |  3:40.54 |    264692    |   281245
       17  | 62:29.71 |  4:24.01 |    281246    |   301046
       18  | 66:53.72 |  3:31.17 |    301047    |   316888
       19  | 70:25.14 |  4:14.23 |    316889    |   335961
       20  | 74:39.37 |  3:03.58 |    335962    |   349744

Track  1

     Filename A:\PsPBuRnOuT's MUSIC\SORTED BY YEAR\2000 PLUS\DISCO INFERNO - THE ULTIMATE COLLECTION\DISCO INFERNO - CD3\01.Patrice Rushen - Forget Me Nots.wav

     Peak level 100.0 %
     Extraction speed 15.2 X
     Track quality 100.0 %
     Copy CRC 26070922
     Track not present in AccurateRip database
     Copy OK

Track  2

     Filename A:\PsPBuRnOuT's MUSIC\SORTED BY YEAR\2000 PLUS\DISCO INFERNO - THE ULTIMATE COLLECTION\DISCO INFERNO - CD3\02.Sister Sledge - We Are Family.wav

     Peak level 89.1 %
     Extraction speed 20.7 X
     Track quality 100.0 %
     Copy CRC DB8B7460
     Track not present in AccurateRip database
     Copy OK

Track  3

     Filename A:\PsPBuRnOuT's MUSIC\SORTED BY YEAR\2000 PLUS\DISCO INFERNO - THE ULTIMATE COLLECTION\DISCO INFERNO - CD3\03.First Choice - Let No Man Put Asunder.wav

     Peak level 87.6 %
     Extraction speed 22.3 X
     Track quality 100.0 %
     Copy CRC 3E4826D6
     Track not present in AccurateRip database
     Copy OK

Track  4

     Filename A:\PsPBuRnOuT's MUSIC\SORTED BY YEAR\2000 PLUS\DISCO INFERNO - THE ULTIMATE COLLECTION\DISCO INFERNO - CD3\04.George Benson - Never Give Up On A Good Thing.wav

     Peak level 100.0 %
     Extraction speed 24.7 X
     Track quality 100.0 %
     Copy CRC 3B75F159
     Track not present in AccurateRip database
     Copy OK

Track  5

     Filename A:\PsPBuRnOuT's MUSIC\SORTED BY YEAR\2000 PLUS\DISCO INFERNO - THE ULTIMATE COLLECTION\DISCO INFERNO - CD3\05.Inner Life - Make It Last Forever.wav

     Peak level 79.4 %
     Extraction speed 25.0 X
     Track quality 100.0 %
     Copy CRC 4CCD138D
     Track not present in AccurateRip database
     Copy OK

Track  6

     Filename A:\PsPBuRnOuT's MUSIC\SORTED BY YEAR\2000 PLUS\DISCO INFERNO - THE ULTIMATE COLLECTION\DISCO INFERNO - CD3\06.Amii Stewart - Knock On Wood.wav

     Peak level 88.1 %
     Extraction speed 26.1 X
     Track quality 100.0 %
     Copy CRC 1141BCB0
     Track not present in AccurateRip database
     Copy OK

Track  7

     Filename A:\PsPBuRnOuT's MUSIC\SORTED BY YEAR\2000 PLUS\DISCO INFERNO - THE ULTIMATE COLLECTION\DISCO INFERNO - CD3\07.Brenda Taylor - You Can't Have Your Cake And Eat It Too.wav

     Peak level 100.0 %
     Extraction speed 27.3 X
     Track quality 100.0 %
     Copy CRC A10C625F
     Track not present in AccurateRip database
     Copy OK

Track  8

     Filename A:\PsPBuRnOuT's MUSIC\SORTED BY YEAR\2000 PLUS\DISCO INFERNO - THE ULTIMATE COLLECTION\DISCO INFERNO - CD3\08.Carol Williams - Love Is You.wav

     Peak level 100.0 %
     Extraction speed 28.0 X
     Track quality 100.0 %
     Copy CRC 33684D4E
     Track not present in AccurateRip database
     Copy OK

Track  9

     Filename A:\PsPBuRnOuT's MUSIC\SORTED BY YEAR\2000 PLUS\DISCO INFERNO - THE ULTIMATE COLLECTION\DISCO INFERNO - CD3\09.Inner Life - Ain't No Mountain High Enough.wav

     Peak level 89.1 %
     Extraction speed 29.3 X
     Track quality 100.0 %
     Copy CRC 3452A05F
     Track not present in AccurateRip database
     Copy OK

Track 10

     Filename A:\PsPBuRnOuT's MUSIC\SORTED BY YEAR\2000 PLUS\DISCO INFERNO - THE ULTIMATE COLLECTION\DISCO INFERNO - CD3\10.Kleeer - Tonight's The Night (Good Time).wav

     Peak level 100.0 %
     Extraction speed 27.3 X
     Track quality 99.9 %
     Copy CRC DA49DD50
     Track not present in AccurateRip database
     Copy OK

Track 11

     Filename A:\PsPBuRnOuT's MUSIC\SORTED BY YEAR\2000 PLUS\DISCO INFERNO - THE ULTIMATE COLLECTION\DISCO INFERNO - CD3\11.Crown Heights Affair - You Gave Me Love.wav

     Peak level 87.2 %
     Extraction speed 24.5 X
     Track quality 100.0 %
     Copy CRC EC2DF467
     Track not present in AccurateRip database
     Copy OK

Track 12

     Filename A:\PsPBuRnOuT's MUSIC\SORTED BY YEAR\2000 PLUS\DISCO INFERNO - THE ULTIMATE COLLECTION\DISCO INFERNO - CD3\12.The Salsoul Orchestra - Chicago Bus Stop (Ooh I Love It).wav

     Peak level 100.0 %
     Extraction speed 33.0 X
     Track quality 100.0 %
     Copy CRC 489C9ACD
     Track not present in AccurateRip database
     Copy OK

Track 13

     Filename A:\PsPBuRnOuT's MUSIC\SORTED BY YEAR\2000 PLUS\DISCO INFERNO - THE ULTIMATE COLLECTION\DISCO INFERNO - CD3\13.Undisputed Truth - You Plus Me Equals Love.wav

     Peak level 89.1 %
     Extraction speed 33.6 X
     Track quality 100.0 %
     Copy CRC 43B1BD3B
     Track not present in AccurateRip database
     Copy OK

Track 14

     Filename A:\PsPBuRnOuT's MUSIC\SORTED BY YEAR\2000 PLUS\DISCO INFERNO - THE ULTIMATE COLLECTION\DISCO INFERNO - CD3\14.Candi Staton - Suspicious Minds.wav

     Peak level 100.0 %
     Extraction speed 28.4 X
     Track quality 99.9 %
     Copy CRC 3BCDAFE4
     Track not present in AccurateRip database
     Copy OK

Track 15

     Filename A:\PsPBuRnOuT's MUSIC\SORTED BY YEAR\2000 PLUS\DISCO INFERNO - THE ULTIMATE COLLECTION\DISCO INFERNO - CD3\15.Double Exposure - My Love Is Free.wav

     Peak level 100.0 %
     Extraction speed 28.4 X
     Track quality 100.0 %
     Copy CRC A8A40185
     Track not present in AccurateRip database
     Copy OK

Track 16

     Filename A:\PsPBuRnOuT's MUSIC\SORTED BY YEAR\2000 PLUS\DISCO INFERNO - THE ULTIMATE COLLECTION\DISCO INFERNO - CD3\16.First Choice - Love Thang.wav

     Peak level 100.0 %
     Extraction speed 36.4 X
     Track quality 100.0 %
     Copy CRC 073514E1
     Track not present in AccurateRip database
     Copy OK

Track 17

     Filename A:\PsPBuRnOuT's MUSIC\SORTED BY YEAR\2000 PLUS\DISCO INFERNO - THE ULTIMATE COLLECTION\DISCO INFERNO - CD3\17.Donna McGhee - I'm A Love Bug.wav

     Peak level 100.0 %
     Extraction speed 37.5 X
     Track quality 100.0 %
     Copy CRC AA69C988
     Track not present in AccurateRip database
     Copy OK

Track 18

     Filename A:\PsPBuRnOuT's MUSIC\SORTED BY YEAR\2000 PLUS\DISCO INFERNO - THE ULTIMATE COLLECTION\DISCO INFERNO - CD3\18.Candido - Dancin' & Prancin'.wav

     Peak level 96.1 %
     Extraction speed 37.4 X
     Track quality 100.0 %
     Copy CRC AC453321
     Track not present in AccurateRip database
     Copy OK

Track 19

     Filename A:\PsPBuRnOuT's MUSIC\SORTED BY YEAR\2000 PLUS\DISCO INFERNO - THE ULTIMATE COLLECTION\DISCO INFERNO - CD3\19.Karen Young - Hot Shot.wav

     Peak level 98.5 %
     Extraction speed 32.3 X
     Track quality 99.9 %
     Copy CRC 623F7485
     Track not present in AccurateRip database
     Copy OK

Track 20

     Filename A:\PsPBuRnOuT's MUSIC\SORTED BY YEAR\2000 PLUS\DISCO INFERNO - THE ULTIMATE COLLECTION\DISCO INFERNO - CD3\20.Crown Heights Affair - Dreaming A Dream.wav

     Peak level 94.4 %
     Extraction speed 9.8 X
     Track quality 99.7 %
     Copy CRC 71C0623F
     Track not present in AccurateRip database
     Copy OK

None of the tracks are present in the AccurateRip database

No errors occurred

End of status report
CD 4

Код:

Exact Audio Copy V1.3 from 2. September 2016

EAC extraction logfile from 15. August 2019, 12:51

Various / Disco Inferno - The Ultimate Collection - CD4

Used drive  : ATAPI   iHAS124   Y   Adapter: 1  ID: 0

Read mode               : Secure
Utilize accurate stream : Yes
Defeat audio cache      : No
Make use of C2 pointers : Yes

Read offset correction                      : 48
Overread into Lead-In and Lead-Out          : No
Fill up missing offset samples with silence : Yes
Delete leading and trailing silent blocks   : No
Null samples used in CRC calculations       : Yes
Used interface                              : Native Win32 interface for Win NT & 2000
Gap handling                                : Not detected, thus appended to previous track

Used output format              : User Defined Encoder
Selected bitrate                : 896 kBit/s
Quality                         : High
Add ID3 tag                     : No
Command line compressor         : C:\Program Files (x86)\Exact Audio Copy\FLAC\FLAC.EXE
Additional command line options : -6 -V -T "ARTIST=%artist%" -T "TITLE=%title%" -T "ALBUM=%albumtitle%" -T "DATE=%year%" -T "TRACKNUMBER=%tracknr%" -T "GENRE=%genre%" -T "COMMENT=%comment%" -T "BAND=%albuminterpret%" -T "ALBUMARTIST=%albuminterpret%" -T "COMPOSER=%composer%" %haslyrics%--tag-from-file=LYRICS="%lyricsfile%"%haslyrics% -T "DISCNUMBER=%cdnumber%" -T "TOTALDISCS=%totalcds%" -T "TOTALTRACKS=%numtracks%" %hascover%--picture="%coverfile%"%hascover% %source% -o %dest%

TOC of the extracted CD

     Track |   Start  |  Length  | Start sector | End sector
    ---------------------------------------------------------
        1  |  0:00.00 |  4:09.35 |         0    |    18709
        2  |  4:09.35 |  6:36.58 |     18710    |    48467
        3  | 10:46.18 |  3:41.20 |     48468    |    65062
        4  | 14:27.38 |  4:04.45 |     65063    |    83407
        5  | 18:32.08 |  4:40.70 |     83408    |   104477
        6  | 23:13.03 |  3:10.65 |    104478    |   118792
        7  | 26:23.68 |  3:11.57 |    118793    |   133174
        8  | 29:35.50 |  3:58.67 |    133175    |   151091
        9  | 33:34.42 |  3:43.51 |    151092    |   167867
       10  | 37:18.18 |  6:00.49 |    167868    |   194916
       11  | 43:18.67 |  3:23.22 |    194917    |   210163
       12  | 46:42.14 |  3:40.50 |    210164    |   226713
       13  | 50:22.64 |  3:23.68 |    226714    |   242006
       14  | 53:46.57 |  3:37.23 |    242007    |   258304
       15  | 57:24.05 |  3:42.38 |    258305    |   274992
       16  | 61:06.43 |  3:28.01 |    274993    |   290593
       17  | 64:34.44 |  3:41.08 |    290594    |   307176
       18  | 68:15.52 |  3:33.30 |    307177    |   323181
       19  | 71:49.07 |  3:50.69 |    323182    |   340500
       20  | 75:40.01 |  4:04.70 |    340501    |   358870

Track  1

     Filename A:\PsPBuRnOuT's MUSIC\SORTED BY YEAR\2000 PLUS\DISCO INFERNO - THE ULTIMATE COLLECTION\DISCO INFERNO - CD4\01.Shalamar - I Can Make You Feel Good.wav

     Peak level 100.0 %
     Extraction speed 13.0 X
     Track quality 100.0 %
     Copy CRC F8CA6665
     Track not present in AccurateRip database
     Copy OK

Track  2

     Filename A:\PsPBuRnOuT's MUSIC\SORTED BY YEAR\2000 PLUS\DISCO INFERNO - THE ULTIMATE COLLECTION\DISCO INFERNO - CD4\02.Patrice Rushen - Haven't You Heard.wav

     Peak level 98.8 %
     Extraction speed 22.0 X
     Track quality 100.0 %
     Copy CRC E359F2F7
     Track not present in AccurateRip database
     Copy OK

Track  3

     Filename A:\PsPBuRnOuT's MUSIC\SORTED BY YEAR\2000 PLUS\DISCO INFERNO - THE ULTIMATE COLLECTION\DISCO INFERNO - CD4\03.Loleatta Holloway - Love Sensation.wav

     Peak level 100.0 %
     Extraction speed 24.3 X
     Track quality 100.0 %
     Copy CRC AC573182
     Track not present in AccurateRip database
     Copy OK

Track  4

     Filename A:\PsPBuRnOuT's MUSIC\SORTED BY YEAR\2000 PLUS\DISCO INFERNO - THE ULTIMATE COLLECTION\DISCO INFERNO - CD4\04.Raw Silk - Do It To The Music.wav

     Peak level 94.4 %
     Extraction speed 24.7 X
     Track quality 100.0 %
     Copy CRC D749613F
     Track not present in AccurateRip database
     Copy OK

Track  5

     Filename A:\PsPBuRnOuT's MUSIC\SORTED BY YEAR\2000 PLUS\DISCO INFERNO - THE ULTIMATE COLLECTION\DISCO INFERNO - CD4\05.The Salsoul Orchestra - Runaway.wav

     Peak level 86.3 %
     Extraction speed 25.7 X
     Track quality 100.0 %
     Copy CRC 58230A39
     Track not present in AccurateRip database
     Copy OK

Track  6

     Filename A:\PsPBuRnOuT's MUSIC\SORTED BY YEAR\2000 PLUS\DISCO INFERNO - THE ULTIMATE COLLECTION\DISCO INFERNO - CD4\06.Kelly Marie - Feels Like I'm In Love.wav

     Peak level 74.1 %
     Extraction speed 22.7 X
     Track quality 99.8 %
     Copy CRC B36253E9
     Track not present in AccurateRip database
     Copy OK

Track  7

     Filename A:\PsPBuRnOuT's MUSIC\SORTED BY YEAR\2000 PLUS\DISCO INFERNO - THE ULTIMATE COLLECTION\DISCO INFERNO - CD4\07.Positive Force - We Got The Funk.wav

     Peak level 82.4 %
     Extraction speed 21.9 X
     Track quality 100.0 %
     Copy CRC 97683E51
     Track not present in AccurateRip database
     Copy OK

Track  8

     Filename A:\PsPBuRnOuT's MUSIC\SORTED BY YEAR\2000 PLUS\DISCO INFERNO - THE ULTIMATE COLLECTION\DISCO INFERNO - CD4\08.The Real Thing - Can You Feel The Force.wav

     Peak level 91.2 %
     Extraction speed 29.2 X
     Track quality 100.0 %
     Copy CRC 8F04DB5D
     Track not present in AccurateRip database
     Copy OK

Track  9

     Filename A:\PsPBuRnOuT's MUSIC\SORTED BY YEAR\2000 PLUS\DISCO INFERNO - THE ULTIMATE COLLECTION\DISCO INFERNO - CD4\09.Shirley & Company - Shame Shame Shame.wav

     Peak level 84.1 %
     Extraction speed 25.5 X
     Track quality 99.9 %
     Copy CRC FB2EFE7C
     Track not present in AccurateRip database
     Copy OK

Track 10

     Filename A:\PsPBuRnOuT's MUSIC\SORTED BY YEAR\2000 PLUS\DISCO INFERNO - THE ULTIMATE COLLECTION\DISCO INFERNO - CD4\10.Norma Jean Wright - Saturday.wav

     Peak level 100.0 %
     Extraction speed 27.4 X
     Track quality 100.0 %
     Copy CRC 1584EC1C
     Track not present in AccurateRip database
     Copy OK

Track 11

     Filename A:\PsPBuRnOuT's MUSIC\SORTED BY YEAR\2000 PLUS\DISCO INFERNO - THE ULTIMATE COLLECTION\DISCO INFERNO - CD4\11.Candi Staton - Nights On Broadway.wav

     Peak level 100.0 %
     Extraction speed 26.7 X
     Track quality 99.8 %
     Copy CRC 84819F76
     Track not present in AccurateRip database
     Copy OK

Track 12

     Filename A:\PsPBuRnOuT's MUSIC\SORTED BY YEAR\2000 PLUS\DISCO INFERNO - THE ULTIMATE COLLECTION\DISCO INFERNO - CD4\12.Love Committee - Just As Long As I Got You.wav

     Peak level 100.0 %
     Extraction speed 27.2 X
     Track quality 100.0 %
     Copy CRC 80B2F244
     Track not present in AccurateRip database
     Copy OK

Track 13

     Filename A:\PsPBuRnOuT's MUSIC\SORTED BY YEAR\2000 PLUS\DISCO INFERNO - THE ULTIMATE COLLECTION\DISCO INFERNO - CD4\13.Shirley Lites - Heat You Up (Melt You Down).wav

     Peak level 100.0 %
     Extraction speed 33.9 X
     Track quality 100.0 %
     Copy CRC 77D17677
     Track not present in AccurateRip database
     Copy OK

Track 14

     Filename A:\PsPBuRnOuT's MUSIC\SORTED BY YEAR\2000 PLUS\DISCO INFERNO - THE ULTIMATE COLLECTION\DISCO INFERNO - CD4\14.Peech Boys - Don't Make Me Wait.wav

     Peak level 100.0 %
     Extraction speed 28.6 X
     Track quality 99.9 %
     Copy CRC 04F6AF7B
     Track not present in AccurateRip database
     Copy OK

Track 15

     Filename A:\PsPBuRnOuT's MUSIC\SORTED BY YEAR\2000 PLUS\DISCO INFERNO - THE ULTIMATE COLLECTION\DISCO INFERNO - CD4\15.Marshall Hain - Dancing In The City.wav

     Peak level 100.0 %
     Extraction speed 28.9 X
     Track quality 100.0 %
     Copy CRC 6A5AE596
     Track not present in AccurateRip database
     Copy OK

Track 16

     Filename A:\PsPBuRnOuT's MUSIC\SORTED BY YEAR\2000 PLUS\DISCO INFERNO - THE ULTIMATE COLLECTION\DISCO INFERNO - CD4\16.Carol Williams - More.wav

     Peak level 100.0 %
     Extraction speed 36.5 X
     Track quality 100.0 %
     Copy CRC 44CE1D09
     Track not present in AccurateRip database
     Copy OK

Track 17

     Filename A:\PsPBuRnOuT's MUSIC\SORTED BY YEAR\2000 PLUS\DISCO INFERNO - THE ULTIMATE COLLECTION\DISCO INFERNO - CD4\17.Skyy - Here's To You.wav

     Peak level 100.0 %
     Extraction speed 37.0 X
     Track quality 100.0 %
     Copy CRC 5C8FD895
     Track not present in AccurateRip database
     Copy OK

Track 18

     Filename A:\PsPBuRnOuT's MUSIC\SORTED BY YEAR\2000 PLUS\DISCO INFERNO - THE ULTIMATE COLLECTION\DISCO INFERNO - CD4\18.Positive Force - Love Injection.wav

     Peak level 100.0 %
     Extraction speed 37.9 X
     Track quality 100.0 %
     Copy CRC BA030405
     Track not present in AccurateRip database
     Copy OK

Track 19

     Filename A:\PsPBuRnOuT's MUSIC\SORTED BY YEAR\2000 PLUS\DISCO INFERNO - THE ULTIMATE COLLECTION\DISCO INFERNO - CD4\19.Sylvia Robinson - Lay It On Me.wav

     Peak level 100.0 %
     Extraction speed 38.8 X
     Track quality 100.0 %
     Copy CRC 7017A64F
     Track not present in AccurateRip database
     Copy OK

Track 20

     Filename A:\PsPBuRnOuT's MUSIC\SORTED BY YEAR\2000 PLUS\DISCO INFERNO - THE ULTIMATE COLLECTION\DISCO INFERNO - CD4\20.The Spinners - Could It Be I'm Falling In Love.wav

     Peak level 100.0 %
     Extraction speed 39.9 X
     Track quality 100.0 %
     Copy CRC 443E66AA
     Track not present in AccurateRip database
     Copy OK

None of the tracks are present in the AccurateRip database

No errors occurred

End of status report
CD 5

Код:

Exact Audio Copy V1.3 from 2. September 2016

EAC extraction logfile from 15. August 2019, 13:18

Various / Disco Inferno - The Ultimate Collection - CD5

Used drive  : ATAPI   iHAS124   Y   Adapter: 1  ID: 0

Read mode               : Secure
Utilize accurate stream : Yes
Defeat audio cache      : No
Make use of C2 pointers : Yes

Read offset correction                      : 48
Overread into Lead-In and Lead-Out          : No
Fill up missing offset samples with silence : Yes
Delete leading and trailing silent blocks   : No
Null samples used in CRC calculations       : Yes
Used interface                              : Native Win32 interface for Win NT & 2000
Gap handling                                : Not detected, thus appended to previous track

Used output format              : User Defined Encoder
Selected bitrate                : 896 kBit/s
Quality                         : High
Add ID3 tag                     : No
Command line compressor         : C:\Program Files (x86)\Exact Audio Copy\FLAC\FLAC.EXE
Additional command line options : -6 -V -T "ARTIST=%artist%" -T "TITLE=%title%" -T "ALBUM=%albumtitle%" -T "DATE=%year%" -T "TRACKNUMBER=%tracknr%" -T "GENRE=%genre%" -T "COMMENT=%comment%" -T "BAND=%albuminterpret%" -T "ALBUMARTIST=%albuminterpret%" -T "COMPOSER=%composer%" %haslyrics%--tag-from-file=LYRICS="%lyricsfile%"%haslyrics% -T "DISCNUMBER=%cdnumber%" -T "TOTALDISCS=%totalcds%" -T "TOTALTRACKS=%numtracks%" %hascover%--picture="%coverfile%"%hascover% %source% -o %dest%

TOC of the extracted CD

     Track |   Start  |  Length  | Start sector | End sector
    ---------------------------------------------------------
        1  |  0:00.00 |  3:20.15 |         0    |    15014
        2  |  3:20.15 |  3:16.34 |     15015    |    29748
        3  |  6:36.49 |  3:20.60 |     29749    |    44808
        4  |  9:57.34 |  5:18.10 |     44809    |    68668
        5  | 15:15.44 |  3:23.44 |     68669    |    83937
        6  | 18:39.13 |  3:08.29 |     83938    |    98066
        7  | 21:47.42 |  4:26.48 |     98067    |   118064
        8  | 26:14.15 |  4:02.06 |    118065    |   136220
        9  | 30:16.21 |  2:59.36 |    136221    |   149681
       10  | 33:15.57 |  3:13.00 |    149682    |   164156
       11  | 36:28.57 |  3:58.56 |    164157    |   182062
       12  | 40:27.38 |  3:40.09 |    182063    |   198571
       13  | 44:07.47 |  4:15.69 |    198572    |   217765
       14  | 48:23.41 |  5:38.46 |    217766    |   243161
       15  | 54:02.12 |  5:15.42 |    243162    |   266828
       16  | 59:17.54 |  4:15.63 |    266829    |   286016
       17  | 63:33.42 |  3:13.13 |    286017    |   300504
       18  | 66:46.55 |  3:25.01 |    300505    |   315880
       19  | 70:11.56 |  4:13.36 |    315881    |   334891
       20  | 74:25.17 |  3:14.20 |    334892    |   349461

Track  1

     Filename A:\PsPBuRnOuT's MUSIC\SORTED BY YEAR\2000 PLUS\DISCO INFERNO - THE ULTIMATE COLLECTION\DISCO INFERNO - CD5\01.The Whispers - And The Beat Goes On.wav

     Peak level 89.1 %
     Extraction speed 14.3 X
     Track quality 100.0 %
     Copy CRC 3EC75BEB
     Track not present in AccurateRip database
     Copy OK

Track  2

     Filename A:\PsPBuRnOuT's MUSIC\SORTED BY YEAR\2000 PLUS\DISCO INFERNO - THE ULTIMATE COLLECTION\DISCO INFERNO - CD5\02.Shalamar - Take That To The Bank.wav

     Peak level 100.0 %
     Extraction speed 20.9 X
     Track quality 100.0 %
     Copy CRC 20B3FAF4
     Track not present in AccurateRip database
     Copy OK

Track  3

     Filename A:\PsPBuRnOuT's MUSIC\SORTED BY YEAR\2000 PLUS\DISCO INFERNO - THE ULTIMATE COLLECTION\DISCO INFERNO - CD5\03.Coffee - Casanova.wav

     Peak level 100.0 %
     Extraction speed 22.3 X
     Track quality 100.0 %
     Copy CRC CE05C61B
     Track not present in AccurateRip database
     Copy OK

Track  4

     Filename A:\PsPBuRnOuT's MUSIC\SORTED BY YEAR\2000 PLUS\DISCO INFERNO - THE ULTIMATE COLLECTION\DISCO INFERNO - CD5\04.Kleeer - Keep Your Body Workin'.wav

     Peak level 87.0 %
     Extraction speed 23.6 X
     Track quality 100.0 %
     Copy CRC C6CB67EC
     Track not present in AccurateRip database
     Copy OK

Track  5

     Filename A:\PsPBuRnOuT's MUSIC\SORTED BY YEAR\2000 PLUS\DISCO INFERNO - THE ULTIMATE COLLECTION\DISCO INFERNO - CD5\05.Carrie Lucas - Dance With You.wav

     Peak level 82.3 %
     Extraction speed 24.4 X
     Track quality 100.0 %
     Copy CRC E52BA553
     Track not present in AccurateRip database
     Copy OK

Track  6

     Filename A:\PsPBuRnOuT's MUSIC\SORTED BY YEAR\2000 PLUS\DISCO INFERNO - THE ULTIMATE COLLECTION\DISCO INFERNO - CD5\06.Rhetta Young - Sending Out An SOS.wav

     Peak level 84.1 %
     Extraction speed 27.0 X
     Track quality 100.0 %
     Copy CRC 7A928488
     Track not present in AccurateRip database
     Copy OK

Track  7

     Filename A:\PsPBuRnOuT's MUSIC\SORTED BY YEAR\2000 PLUS\DISCO INFERNO - THE ULTIMATE COLLECTION\DISCO INFERNO - CD5\07.Aurra - Send Your Love.wav

     Peak level 100.0 %
     Extraction speed 26.9 X
     Track quality 100.0 %
     Copy CRC 842336E6
     Track not present in AccurateRip database
     Copy OK

Track  8

     Filename A:\PsPBuRnOuT's MUSIC\SORTED BY YEAR\2000 PLUS\DISCO INFERNO - THE ULTIMATE COLLECTION\DISCO INFERNO - CD5\08.Moment Of Truth - You Got Me Hummin'.wav

     Peak level 93.5 %
     Extraction speed 28.2 X
     Track quality 100.0 %
     Copy CRC EB1AC6F4
     Track not present in AccurateRip database
     Copy OK

Track  9

     Filename A:\PsPBuRnOuT's MUSIC\SORTED BY YEAR\2000 PLUS\DISCO INFERNO - THE ULTIMATE COLLECTION\DISCO INFERNO - CD5\09.Bebu Silvetti - Spring Rain.wav

     Peak level 89.1 %
     Extraction speed 30.7 X
     Track quality 100.0 %
     Copy CRC 3E597AC5
     Track not present in AccurateRip database
     Copy OK

Track 10

     Filename A:\PsPBuRnOuT's MUSIC\SORTED BY YEAR\2000 PLUS\DISCO INFERNO - THE ULTIMATE COLLECTION\DISCO INFERNO - CD5\10.Dynasty - I Don't Want To Be A Freak (But I Can't Help Myself).wav

     Peak level 84.1 %
     Extraction speed 30.0 X
     Track quality 100.0 %
     Copy CRC 07AAEE42
     Track not present in AccurateRip database
     Copy OK

Track 11

     Filename A:\PsPBuRnOuT's MUSIC\SORTED BY YEAR\2000 PLUS\DISCO INFERNO - THE ULTIMATE COLLECTION\DISCO INFERNO - CD5\11.Lakeside - Fantastic Voyage.wav

     Peak level 95.0 %
     Extraction speed 32.5 X
     Track quality 100.0 %
     Copy CRC EF75CE2A
     Track not present in AccurateRip database
     Copy OK

Track 12

     Filename A:\PsPBuRnOuT's MUSIC\SORTED BY YEAR\2000 PLUS\DISCO INFERNO - THE ULTIMATE COLLECTION\DISCO INFERNO - CD5\12.Osibisa - Dance The Body Music.wav

     Peak level 88.7 %
     Extraction speed 31.9 X
     Track quality 100.0 %
     Copy CRC 5AD8D3AD
     Track not present in AccurateRip database
     Copy OK

Track 13

     Filename A:\PsPBuRnOuT's MUSIC\SORTED BY YEAR\2000 PLUS\DISCO INFERNO - THE ULTIMATE COLLECTION\DISCO INFERNO - CD5\13.Taana Gardner - Heartbeat.wav

     Peak level 86.6 %
     Extraction speed 34.5 X
     Track quality 100.0 %
     Copy CRC 4B813D56
     Track not present in AccurateRip database
     Copy OK

Track 14

     Filename A:\PsPBuRnOuT's MUSIC\SORTED BY YEAR\2000 PLUS\DISCO INFERNO - THE ULTIMATE COLLECTION\DISCO INFERNO - CD5\14.Norma Jean Wright - I Like Love.wav

     Peak level 100.0 %
     Extraction speed 34.5 X
     Track quality 100.0 %
     Copy CRC A46B4B68
     Track not present in AccurateRip database
     Copy OK

Track 15

     Filename A:\PsPBuRnOuT's MUSIC\SORTED BY YEAR\2000 PLUS\DISCO INFERNO - THE ULTIMATE COLLECTION\DISCO INFERNO - CD5\15.Narada Michael Walden - Lovin' You Madly.wav

     Peak level 100.0 %
     Extraction speed 21.1 X
     Track quality 99.9 %
     Copy CRC A5E996DD
     Track not present in AccurateRip database
     Copy OK

Track 16

     Filename A:\PsPBuRnOuT's MUSIC\SORTED BY YEAR\2000 PLUS\DISCO INFERNO - THE ULTIMATE COLLECTION\DISCO INFERNO - CD5\16.Sheila & B. Devotion - You Light My Fire.wav

     Peak level 78.5 %
     Extraction speed 36.3 X
     Track quality 100.0 %
     Copy CRC 3B8DE52D
     Track not present in AccurateRip database
     Copy OK

Track 17

     Filename A:\PsPBuRnOuT's MUSIC\SORTED BY YEAR\2000 PLUS\DISCO INFERNO - THE ULTIMATE COLLECTION\DISCO INFERNO - CD5\17.Bettye Lavette - Doin' The Best That I Can.wav

     Peak level 94.4 %
     Extraction speed 39.3 X
     Track quality 100.0 %
     Copy CRC CDDFE294
     Track not present in AccurateRip database
     Copy OK

Track 18

     Filename A:\PsPBuRnOuT's MUSIC\SORTED BY YEAR\2000 PLUS\DISCO INFERNO - THE ULTIMATE COLLECTION\DISCO INFERNO - CD5\18.Sybil Thomas - Rescue Me.wav

     Peak level 100.0 %
     Extraction speed 39.9 X
     Track quality 100.0 %
     Copy CRC A085A1BA
     Track not present in AccurateRip database
     Copy OK

Track 19

     Filename A:\PsPBuRnOuT's MUSIC\SORTED BY YEAR\2000 PLUS\DISCO INFERNO - THE ULTIMATE COLLECTION\DISCO INFERNO - CD5\19.Moment Of Truth - Lovin' You Is Killing Me.wav

     Peak level 92.3 %
     Extraction speed 40.9 X
     Track quality 100.0 %
     Copy CRC 106A78ED
     Track not present in AccurateRip database
     Copy OK

Track 20

     Filename A:\PsPBuRnOuT's MUSIC\SORTED BY YEAR\2000 PLUS\DISCO INFERNO - THE ULTIMATE COLLECTION\DISCO INFERNO - CD5\20.Bebu Silvetti - Voyage Of No Return.wav

     Peak level 96.6 %
     Extraction speed 10.9 X
     Track quality 99.7 %
     Copy CRC 63CE8762
     Track not present in AccurateRip database
     Copy OK

None of the tracks are present in the AccurateRip database

No errors occurred

End of status report
Индексная карта (non-compilant .cue)
CD 1

Код:

REM GENRE Disco/Pop
REM DATE 2019
REM DISCID 13129614
REM DISCNUMBER 1
REM TOTALDISCS 5
REM COMMENT "Exact Audio Copy V1.3"
PERFORMER "Various"
TITLE "Disco Inferno - The Ultimate Collection - CD1"
FILE "01.Chic - Good Times.flac" WAVE
  TRACK 01 AUDIO
    PERFORMER "Chic"
    TITLE "Good Times"
    INDEX 01 00:00:00
FILE "02.The Trammps - Disco Inferno.flac" WAVE
  TRACK 02 AUDIO
    PERFORMER "The Trammps"
    TITLE "Disco Inferno"
    INDEX 01 00:00:00
FILE "03.Rose Royce - Is It Love You're After.flac" WAVE
  TRACK 03 AUDIO
    PERFORMER "Rose Royce"
    TITLE "Is It Love You're After"
    INDEX 01 00:00:00
FILE "04.Sister Sledge - Lost In Music.flac" WAVE
  TRACK 04 AUDIO
    PERFORMER "Sister Sledge"
    TITLE "Lost In Music"
    INDEX 01 00:00:00
FILE "05.Gwen McCrae - Keep The Fire Burning.flac" WAVE
  TRACK 05 AUDIO
    PERFORMER "Gwen McCrae"
    TITLE "Keep The Fire Burning"
    INDEX 01 00:00:00
FILE "06.Slave - Just A Touch Of Love.flac" WAVE
  TRACK 06 AUDIO
    PERFORMER "Slave"
    TITLE "Just A Touch Of Love"
    INDEX 01 00:00:00
FILE "07.Stacy Lattisaw - Jump To The Beat.flac" WAVE
  TRACK 07 AUDIO
    PERFORMER "Stacy Lattisaw"
    TITLE "Jump To The Beat"
    INDEX 01 00:00:00
FILE "08.Rufus & Chaka Khan - Ain't Nobody.flac" WAVE
  TRACK 08 AUDIO
    PERFORMER "Rufus & Chaka Khan"
    TITLE "Ain't Nobody"
    INDEX 01 00:00:00
FILE "09.Shalamar - A Night To Remember.flac" WAVE
  TRACK 09 AUDIO
    PERFORMER "Shalamar"
    TITLE "A Night To Remember"
    INDEX 01 00:00:00
FILE "10.Chic - Everybody Dance.flac" WAVE
  TRACK 10 AUDIO
    PERFORMER "Chic"
    TITLE "Everybody Dance"
    INDEX 01 00:00:00
FILE "11.Candi Staton - Young Hearts Run Free.flac" WAVE
  TRACK 11 AUDIO
    PERFORMER "Candi Staton"
    TITLE "Young Hearts Run Free"
    INDEX 01 00:00:00
FILE "12.Stargard - Wear It Out.flac" WAVE
  TRACK 12 AUDIO
    PERFORMER "Stargard"
    TITLE "Wear It Out"
    INDEX 01 00:00:00
FILE "13.Phreek - Weekend.flac" WAVE
  TRACK 13 AUDIO
    PERFORMER "Phreek"
    TITLE "Weekend"
    INDEX 01 00:00:00
FILE "14.Janice McClain - Smack Dab In The Middle.flac" WAVE
  TRACK 14 AUDIO
    PERFORMER "Janice McClain"
    TITLE "Smack Dab In The Middle"
    INDEX 01 00:00:00
FILE "15.Goody Goody - It Looks Like Love.flac" WAVE
  TRACK 15 AUDIO
    PERFORMER "Goody Goody"
    TITLE "It Looks Like Love"
    INDEX 01 00:00:00
FILE "16.Narada Michael Walden - Tonight I'm Alright.flac" WAVE
  TRACK 16 AUDIO
    PERFORMER "Narada Michael Walden"
    TITLE "Tonight I'm Alright"
    INDEX 01 00:00:00
FILE "17.Nu Shooz - I Can't Wait.flac" WAVE
  TRACK 17 AUDIO
    PERFORMER "Nu Shooz"
    TITLE "I Can't Wait"
    INDEX 01 00:00:00
FILE "18.Hot Chocolate - Emotion Explosion.flac" WAVE
  TRACK 18 AUDIO
    PERFORMER "Hot Chocolate"
    TITLE "Emotion Explosion"
    INDEX 01 00:00:00
FILE "19.Steve Arrington - Feel So Real.flac" WAVE
  TRACK 19 AUDIO
    PERFORMER "Steve Arrington"
    TITLE "Feel So Real"
    INDEX 01 00:00:00
FILE "20.Maria Muldaur - Midnight At The Oasis.flac" WAVE
  TRACK 20 AUDIO
    PERFORMER "Maria Muldaur"
    TITLE "Midnight At The Oasis"
    INDEX 01 00:00:00
CD 2

Код:

REM GENRE Disco/Pop
REM DATE 2019
REM DISCID 0F127914
REM DISCNUMBER 2
REM TOTALDISCS 5
REM COMMENT "Exact Audio Copy V1.3"
PERFORMER "Various"
TITLE "Disco Inferno - The Ultimate Collection - CD2"
FILE "01.Sister Sledge - He's The Greatest Dancer.flac" WAVE
  TRACK 01 AUDIO
    PERFORMER "Sister Sledge"
    TITLE "He's The Greatest Dancer"
    INDEX 01 00:00:00
FILE "02.George Benson - Give Me The Night.flac" WAVE
  TRACK 02 AUDIO
    PERFORMER "George Benson"
    TITLE "Give Me The Night"
    INDEX 01 00:00:00
FILE "03.Change - The Glow Of Love.flac" WAVE
  TRACK 03 AUDIO
    PERFORMER "Change"
    TITLE "The Glow Of Love"
    INDEX 01 00:00:00
FILE "04.Midnight Star - Midas Touch.flac" WAVE
  TRACK 04 AUDIO
    PERFORMER "Midnight Star"
    TITLE "Midas Touch"
    INDEX 01 00:00:00
FILE "05.Chic - Le Freak.flac" WAVE
  TRACK 05 AUDIO
    PERFORMER "Chic"
    TITLE "Le Freak"
    INDEX 01 00:00:00
FILE "06.KC & The Sunshine Band - (Shake Shake Shake) Shake Your Booty.flac" WAVE
  TRACK 06 AUDIO
    PERFORMER "KC & The Sunshine Band"
    TITLE "(Shake Shake Shake) Shake Your Booty"
    INDEX 01 00:00:00
FILE "07.Chaka Khan - I'm Every Woman.flac" WAVE
  TRACK 07 AUDIO
    PERFORMER "Chaka Khan"
    TITLE "I'm Every Woman"
    INDEX 01 00:00:00
FILE "08.Narada Michael Walden - I Shoulda Loved Ya.flac" WAVE
  TRACK 08 AUDIO
    PERFORMER "Narada Michael Walden"
    TITLE "I Shoulda Loved Ya"
    INDEX 01 00:00:00
FILE "09.Carl Douglas - Dance The Kung Fu.flac" WAVE
  TRACK 09 AUDIO
    PERFORMER "Carl Douglas"
    TITLE "Dance The Kung Fu"
    INDEX 01 00:00:00
FILE "10.Aurra - Make Up Your Mind.flac" WAVE
  TRACK 10 AUDIO
    PERFORMER "Aurra"
    TITLE "Make Up Your Mind"
    INDEX 01 00:00:00
FILE "11.Sheila B. Devotion - Spacer.flac" WAVE
  TRACK 11 AUDIO
    PERFORMER "Sheila B. Devotion"
    TITLE "Spacer"
    INDEX 01 00:00:00
FILE "12.Change - Paradise.flac" WAVE
  TRACK 12 AUDIO
    PERFORMER "Change"
    TITLE "Paradise"
    INDEX 01 00:00:00
FILE "13.Gino Soccio - Dancer.flac" WAVE
  TRACK 13 AUDIO
    PERFORMER "Gino Soccio"
    TITLE "Dancer"
    INDEX 01 00:00:00
FILE "14.Hot Chocolate - You Sexy Thing.flac" WAVE
  TRACK 14 AUDIO
    PERFORMER "Hot Chocolate"
    TITLE "You Sexy Thing"
    INDEX 01 00:00:00
FILE "15.Slave - Watching You.flac" WAVE
  TRACK 15 AUDIO
    PERFORMER "Slave"
    TITLE "Watching You"
    INDEX 01 00:00:00
FILE "16.Norma Jean Wright - Sorcerer.flac" WAVE
  TRACK 16 AUDIO
    PERFORMER "Norma Jean Wright"
    TITLE "Sorcerer"
    INDEX 01 00:00:00
FILE "17.Deodato - Whistle Bump.flac" WAVE
  TRACK 17 AUDIO
    PERFORMER "Deodato"
    TITLE "Whistle Bump"
    INDEX 01 00:00:00
FILE "18.Richie Havens - Going Back To My Roots.flac" WAVE
  TRACK 18 AUDIO
    PERFORMER "Richie Havens"
    TITLE "Going Back To My Roots"
    INDEX 01 00:00:00
FILE "19.Frankie Valli - Native New Yorker.flac" WAVE
  TRACK 19 AUDIO
    PERFORMER "Frankie Valli"
    TITLE "Native New Yorker"
    INDEX 01 00:00:00
FILE "20.Tony Wilson - I Like Your Style.flac" WAVE
  TRACK 20 AUDIO
    PERFORMER "Tony Wilson"
    TITLE "I Like Your Style"
    INDEX 01 00:00:00
CD 3

Код:

REM GENRE Disco/Pop
REM DATE 2019
REM DISCID 1A123714
REM DISCNUMBER 3
REM TOTALDISCS 5
REM COMMENT "Exact Audio Copy V1.3"
PERFORMER "Various"
TITLE "Disco Inferno - The Ultimate Collection - CD3"
FILE "01.Patrice Rushen - Forget Me Nots.flac" WAVE
  TRACK 01 AUDIO
    PERFORMER "Patrice Rushen"
    TITLE "Forget Me Nots"
    INDEX 01 00:00:00
FILE "02.Sister Sledge - We Are Family.flac" WAVE
  TRACK 02 AUDIO
    PERFORMER "Sister Sledge"
    TITLE "We Are Family"
    INDEX 01 00:00:00
FILE "03.First Choice - Let No Man Put Asunder.flac" WAVE
  TRACK 03 AUDIO
    PERFORMER "First Choice"
    TITLE "Let No Man Put Asunder"
    INDEX 01 00:00:00
FILE "04.George Benson - Never Give Up On A Good Thing.flac" WAVE
  TRACK 04 AUDIO
    PERFORMER "George Benson"
    TITLE "Never Give Up On A Good Thing"
    INDEX 01 00:00:00
FILE "05.Inner Life - Make It Last Forever.flac" WAVE
  TRACK 05 AUDIO
    PERFORMER "Inner Life"
    TITLE "Make It Last Forever"
    INDEX 01 00:00:00
FILE "06.Amii Stewart - Knock On Wood.flac" WAVE
  TRACK 06 AUDIO
    PERFORMER "Amii Stewart"
    TITLE "Knock On Wood"
    INDEX 01 00:00:00
FILE "07.Brenda Taylor - You Can't Have Your Cake And Eat It Too.flac" WAVE
  TRACK 07 AUDIO
    PERFORMER "Brenda Taylor"
    TITLE "You Can't Have Your Cake And Eat It Too"
    INDEX 01 00:00:00
FILE "08.Carol Williams - Love Is You.flac" WAVE
  TRACK 08 AUDIO
    PERFORMER "Carol Williams"
    TITLE "Love Is You"
    INDEX 01 00:00:00
FILE "09.Inner Life - Ain't No Mountain High Enough.flac" WAVE
  TRACK 09 AUDIO
    PERFORMER "Inner Life"
    TITLE "Ain't No Mountain High Enough"
    INDEX 01 00:00:00
FILE "10.Kleeer - Tonight's The Night (Good Time).flac" WAVE
  TRACK 10 AUDIO
    PERFORMER "Kleeer"
    TITLE "Tonight's The Night (Good Time)"
    INDEX 01 00:00:00
FILE "11.Crown Heights Affair - You Gave Me Love.flac" WAVE
  TRACK 11 AUDIO
    PERFORMER "Crown Heights Affair"
    TITLE "You Gave Me Love"
    INDEX 01 00:00:00
FILE "12.The Salsoul Orchestra - Chicago Bus Stop (Ooh I Love It).flac" WAVE
  TRACK 12 AUDIO
    PERFORMER "The Salsoul Orchestra"
    TITLE "Chicago Bus Stop (Ooh I Love It)"
    INDEX 01 00:00:00
FILE "13.Undisputed Truth - You Plus Me Equals Love.flac" WAVE
  TRACK 13 AUDIO
    PERFORMER "Undisputed Truth"
    TITLE "You + Me = Love"
    INDEX 01 00:00:00
FILE "14.Candi Staton - Suspicious Minds.flac" WAVE
  TRACK 14 AUDIO
    PERFORMER "Candi Staton"
    TITLE "Suspicious Minds"
    INDEX 01 00:00:00
FILE "15.Double Exposure - My Love Is Free.flac" WAVE
  TRACK 15 AUDIO
    PERFORMER "Double Exposure"
    TITLE "My Love Is Free"
    INDEX 01 00:00:00
FILE "16.First Choice - Love Thang.flac" WAVE
  TRACK 16 AUDIO
    PERFORMER "First Choice"
    TITLE "Love Thang"
    INDEX 01 00:00:00
FILE "17.Donna McGhee - I'm A Love Bug.flac" WAVE
  TRACK 17 AUDIO
    PERFORMER "Donna McGhee"
    TITLE "I'm A Love Bug"
    INDEX 01 00:00:00
FILE "18.Candido - Dancin' & Prancin'.flac" WAVE
  TRACK 18 AUDIO
    PERFORMER "Candido"
    TITLE "Dancin' & Prancin'"
    INDEX 01 00:00:00
FILE "19.Karen Young - Hot Shot.flac" WAVE
  TRACK 19 AUDIO
    PERFORMER "Karen Young"
    TITLE "Hot Shot"
    INDEX 01 00:00:00
FILE "20.Crown Heights Affair - Dreaming A Dream.flac" WAVE
  TRACK 20 AUDIO
    PERFORMER "Crown Heights Affair"
    TITLE "Dreaming A Dream"
    INDEX 01 00:00:00
CD 4

Код:

REM GENRE Disco/Pop
REM DATE 2019
REM DISCID 2112B014
REM DISCNUMBER 4
REM TOTALDISCS 5
REM COMMENT "Exact Audio Copy V1.3"
PERFORMER "Various"
TITLE "Disco Inferno - The Ultimate Collection - CD4"
FILE "01.Shalamar - I Can Make You Feel Good.flac" WAVE
  TRACK 01 AUDIO
    PERFORMER "Shalamar"
    TITLE "I Can Make You Feel Good"
    INDEX 01 00:00:00
FILE "02.Patrice Rushen - Haven't You Heard.flac" WAVE
  TRACK 02 AUDIO
    PERFORMER "Patrice Rushen"
    TITLE "Haven't You Heard"
    INDEX 01 00:00:00
FILE "03.Loleatta Holloway - Love Sensation.flac" WAVE
  TRACK 03 AUDIO
    PERFORMER "Loleatta Holloway"
    TITLE "Love Sensation"
    INDEX 01 00:00:00
FILE "04.Raw Silk - Do It To The Music.flac" WAVE
  TRACK 04 AUDIO
    PERFORMER "Raw Silk"
    TITLE "Do It To The Music"
    INDEX 01 00:00:00
FILE "05.The Salsoul Orchestra - Runaway.flac" WAVE
  TRACK 05 AUDIO
    PERFORMER "The Salsoul Orchestra"
    TITLE "Runaway"
    INDEX 01 00:00:00
FILE "06.Kelly Marie - Feels Like I'm In Love.flac" WAVE
  TRACK 06 AUDIO
    PERFORMER "Kelly Marie"
    TITLE "Feels Like I'm In Love"
    INDEX 01 00:00:00
FILE "07.Positive Force - We Got The Funk.flac" WAVE
  TRACK 07 AUDIO
    PERFORMER "Positive Force"
    TITLE "We Got The Funk"
    INDEX 01 00:00:00
FILE "08.The Real Thing - Can You Feel The Force.flac" WAVE
  TRACK 08 AUDIO
    PERFORMER "The Real Thing"
    TITLE "Can You Feel The Force"
    INDEX 01 00:00:00
FILE "09.Shirley & Company - Shame Shame Shame.flac" WAVE
  TRACK 09 AUDIO
    PERFORMER "Shirley & Company"
    TITLE "Shame Shame Shame"
    INDEX 01 00:00:00
FILE "10.Norma Jean Wright - Saturday.flac" WAVE
  TRACK 10 AUDIO
    PERFORMER "Norma Jean Wright"
    TITLE "Saturday"
    INDEX 01 00:00:00
FILE "11.Candi Staton - Nights On Broadway.flac" WAVE
  TRACK 11 AUDIO
    PERFORMER "Candi Staton"
    TITLE "Nights On Broadway"
    INDEX 01 00:00:00
FILE "12.Love Committee - Just As Long As I Got You.flac" WAVE
  TRACK 12 AUDIO
    PERFORMER "Love Committee"
    TITLE "Just As Long As I Got You"
    INDEX 01 00:00:00
FILE "13.Shirley Lites - Heat You Up (Melt You Down).flac" WAVE
  TRACK 13 AUDIO
    PERFORMER "Shirley Lites"
    TITLE "Heat You Up (Melt You Down)"
    INDEX 01 00:00:00
FILE "14.Peech Boys - Don't Make Me Wait.flac" WAVE
  TRACK 14 AUDIO
    PERFORMER "Peech Boys"
    TITLE "Don't Make Me Wait"
    INDEX 01 00:00:00
FILE "15.Marshall Hain - Dancing In The City.flac" WAVE
  TRACK 15 AUDIO
    PERFORMER "Marshall Hain"
    TITLE "Dancing In The City"
    INDEX 01 00:00:00
FILE "16.Carol Williams - More.flac" WAVE
  TRACK 16 AUDIO
    PERFORMER "Carol Williams"
    TITLE "More"
    INDEX 01 00:00:00
FILE "17.Skyy - Here's To You.flac" WAVE
  TRACK 17 AUDIO
    PERFORMER "Skyy"
    TITLE "Here's To You"
    INDEX 01 00:00:00
FILE "18.Positive Force - Love Injection.flac" WAVE
  TRACK 18 AUDIO
    PERFORMER "Positive Force"
    TITLE "Love Injection"
    INDEX 01 00:00:00
FILE "19.Sylvia Robinson - Lay It On Me.flac" WAVE
  TRACK 19 AUDIO
    PERFORMER "Sylvia Robinson"
    TITLE "Lay It On Me"
    INDEX 01 00:00:00
FILE "20.The Spinners - Could It Be I'm Falling In Love.flac" WAVE
  TRACK 20 AUDIO
    PERFORMER "The Spinners"
    TITLE "Could It Be I'm Falling In Love"
    INDEX 01 00:00:00
CD 5

Код:

REM GENRE Disco/Pop
REM DATE 2019
REM DISCID 35123314
REM DISCNUMBER 5
REM TOTALDISCS 5
REM COMMENT "Exact Audio Copy V1.3"
PERFORMER "Various"
TITLE "Disco Inferno - The Ultimate Collection - CD5"
FILE "01.The Whispers - And The Beat Goes On.flac" WAVE
  TRACK 01 AUDIO
    PERFORMER "The Whispers"
    TITLE "And The Beat Goes On"
    INDEX 01 00:00:00
FILE "02.Shalamar - Take That To The Bank.flac" WAVE
  TRACK 02 AUDIO
    PERFORMER "Shalamar"
    TITLE "Take That To The Bank"
    INDEX 01 00:00:00
FILE "03.Coffee - Casanova.flac" WAVE
  TRACK 03 AUDIO
    PERFORMER "Coffee"
    TITLE "Casanova"
    INDEX 01 00:00:00
FILE "04.Kleeer - Keep Your Body Workin'.flac" WAVE
  TRACK 04 AUDIO
    PERFORMER "Kleeer"
    TITLE "Keep Your Body Workin'"
    INDEX 01 00:00:00
FILE "05.Carrie Lucas - Dance With You.flac" WAVE
  TRACK 05 AUDIO
    PERFORMER "Carrie Lucas"
    TITLE "Dance With You"
    INDEX 01 00:00:00
FILE "06.Rhetta Young - Sending Out An SOS.flac" WAVE
  TRACK 06 AUDIO
    PERFORMER "Rhetta Young"
    TITLE "Sending Out An SOS"
    INDEX 01 00:00:00
FILE "07.Aurra - Send Your Love.flac" WAVE
  TRACK 07 AUDIO
    PERFORMER "Aurra"
    TITLE "Send Your Love"
    INDEX 01 00:00:00
FILE "08.Moment Of Truth - You Got Me Hummin'.flac" WAVE
  TRACK 08 AUDIO
    PERFORMER "Moment Of Truth"
    TITLE "You Got Me Hummin'"
    INDEX 01 00:00:00
FILE "09.Bebu Silvetti - Spring Rain.flac" WAVE
  TRACK 09 AUDIO
    PERFORMER "Bebu Silvetti"
    TITLE "Spring Rain"
    INDEX 01 00:00:00
FILE "10.Dynasty - I Don't Want To Be A Freak (But I Can't Help Myself).flac" WAVE
  TRACK 10 AUDIO
    PERFORMER "Dynasty"
    TITLE "I Don't Want To Be A Freak (But I Can't Help Myself)"
    INDEX 01 00:00:00
FILE "11.Lakeside - Fantastic Voyage.flac" WAVE
  TRACK 11 AUDIO
    PERFORMER "Lakeside"
    TITLE "Fantastic Voyage"
    INDEX 01 00:00:00
FILE "12.Osibisa - Dance The Body Music.flac" WAVE
  TRACK 12 AUDIO
    PERFORMER "Osibisa"
    TITLE "Dance The Body Music"
    INDEX 01 00:00:00
FILE "13.Taana Gardner - Heartbeat.flac" WAVE
  TRACK 13 AUDIO
    PERFORMER "Taana Gardner"
    TITLE "Heartbeat"
    INDEX 01 00:00:00
FILE "14.Norma Jean Wright - I Like Love.flac" WAVE
  TRACK 14 AUDIO
    PERFORMER "Norma Jean Wright"
    TITLE "I Like Love"
    INDEX 01 00:00:00
FILE "15.Narada Michael Walden - Lovin' You Madly.flac" WAVE
  TRACK 15 AUDIO
    PERFORMER "Narada Michael Walden"
    TITLE "Lovin' You Madly"
    INDEX 01 00:00:00
FILE "16.Sheila & B. Devotion - You Light My Fire.flac" WAVE
  TRACK 16 AUDIO
    PERFORMER "Sheila & B. Devotion"
    TITLE "You Light My Fire"
    INDEX 01 00:00:00
FILE "17.Bettye Lavette - Doin' The Best That I Can.flac" WAVE
  TRACK 17 AUDIO
    PERFORMER "Bettye Lavette"
    TITLE "Doin' The Best That I Can"
    INDEX 01 00:00:00
FILE "18.Sybil Thomas - Rescue Me.flac" WAVE
  TRACK 18 AUDIO
    PERFORMER "Sybil Thomas"
    TITLE "Rescue Me"
    INDEX 01 00:00:00
FILE "19.Moment Of Truth - Lovin' You Is Killing Me.flac" WAVE
  TRACK 19 AUDIO
    PERFORMER "Moment Of Truth"
    TITLE "Lovin' You Is Killing Me"
    INDEX 01 00:00:00
FILE "20.Bebu Silvetti - Voyage Of No Return.flac" WAVE
  TRACK 20 AUDIO
    PERFORMER "Bebu Silvetti"
    TITLE "Voyage Of No Return"
    INDEX 01 00:00:00


pic
pic
VA - Disco Inferno Ultimate Disco Anthems CD Lossless.torrent
Трекер: Зарегистрирован

magnet ссылка

 


Скачать .torrent

25 KB

Статус: проверено (by Snowden в 19-Сен-19 14:35)
Зарегистрирован: 19-Сен-19 14:07
Скачан: 17 раз
Размер: 2.64 GB | 
Поблагодарили:
Скачать (Disco, Funk, Soul) VA - Disco Inferno: Ultimate Disco Anthems (5CD Box Set) - 2019 [FLAC, tracks +.cue, lossless] торрент
 


Похожие раздачи

лейкин

post 19-Сен-19 17:35 (спустя 3 часа)

https://www.youtube.com/watch?v=c9iS2nRieoM

Текущее время: 26-Сен 01:51

Часовой пояс: GMT + 3



Вы не можете начинать темы
Вы не можете отвечать на сообщения
Вы не можете редактировать свои сообщения
Вы не можете удалять свои сообщения
Вы не можете голосовать в опросах
Вы не можете прикреплять файлы к сообщениям
Вы не можете скачивать файлы